Поиск

1982 Dave Brubeck - In Montreux, 1982 (2000) {West Wind WW2131}

1982 Dave Brubeck - In Montreux, 1982 (2000) {West Wind WW2131}
Издатель (лейбл):
Треклист:

Номер по каталогу: WW2131
Страна-производитель диска (релиза): USA
Дата записи диска: 22 июля 1982
Место записи: Montreux Jazz Festival
Дата издания диска: 2000
Носитель: CD
Битрейт аудио: lossless
Аудиокодек: FLAC
Тип рипа: tracks+.cue
Время звучания: 01:08:42
Наличие сканов: да
Релизёр (источник): JanV

Треклист:
01. Tritonis 8:35
02. Koto Song 10:44
03. Improvisation 6:26
04. Big Bad Basie 5:37
05. Black and Blue 7:54
06. Take Five 8:21
07. Benjamin 7:23
08. Blue Rondo a la Turk 6:14
09. Lover Man 7:28

 
Лог создания рипа
Отчёт EAC об извлечении, выполненном 13. марта 2007, 1:44 для диска:
Dave Brubeck / In Montreux

Дисковод: TSSTcorpCD/DVDW SH-S182D   Adapter: 1  ID: 0
Режим чтения: Достоверный (C2: нет, Точный поток: да, Отключение кэша: да)
Комбинированное смещение чтения/записи: 0
Способность читать области Lead-in и Lead-out : Нет

Выходной формат: Внутренние WAV-операции
                     44.100 Гц; 16 бит; стерео

Другие параметры: 
    Заполнение пропущенных сэмплов тишиной : Да
    Удаление блоков с тишиной в начале и конце : Нет
    Встроенный Win32-интерфейс для Win NT/2000


Трек  1
     Имя файла D:\temp\Brubeck in Montreux\01 - Tritonis.wav

     Пиковый уровень 61.3 %
     Качество трека 99.9 %
     CRC теста 68633FA8
     CRC копии 68633FA8
     Копирование... OK

Трек  2
     Имя файла D:\temp\Brubeck in Montreux\02 - Koto Song.wav

     Пиковый уровень 59.6 %
     Качество трека 100.0 %
     CRC теста 4FB40C6D
     CRC копии 4FB40C6D
     Копирование... OK

Трек  3
     Имя файла D:\temp\Brubeck in Montreux\03 - Improvisation.wav

     Пиковый уровень 61.9 %
     Качество трека 100.0 %
     CRC теста D4E3C482
     CRC копии D4E3C482
     Копирование... OK

Трек  4
     Имя файла D:\temp\Brubeck in Montreux\04 - Big Bad Basie.wav

     Пиковый уровень 62.3 %
     Качество трека 100.0 %
     CRC теста 1ED1FD82
     CRC копии 1ED1FD82
     Копирование... OK

Трек  5
     Имя файла D:\temp\Brubeck in Montreux\05 - Black and Blue.wav

     Пиковый уровень 62.7 %
     Качество трека 99.9 %
     CRC теста 162A2C80
     CRC копии 162A2C80
     Копирование... OK

Трек  6
     Имя файла D:\temp\Brubeck in Montreux\06 - Take Five.wav

     Пиковый уровень 61.5 %
     Качество трека 100.0 %
     CRC теста 67FDB8DC
     CRC копии 67FDB8DC
     Копирование... OK

Трек  7
     Имя файла D:\temp\Brubeck in Montreux\07 - Benjamin Christopher David Brubeck.wav

     Пиковый уровень 58.8 %
     Качество трека 100.0 %
     CRC теста 52332F5C
     CRC копии 52332F5C
     Копирование... OK

Трек  8
     Имя файла D:\temp\Brubeck in Montreux\08 - Blue Rondo a la Turk.wav

     Пиковый уровень 61.5 %
     Качество трека 100.0 %
     CRC теста 38850CAE
     CRC копии 38850CAE
     Копирование... OK

Трек  9
     Имя файла D:\temp\Brubeck in Montreux\09 - Lover Man.wav

     Пиковый уровень 78.1 %
     Качество трека 100.0 %
     CRC теста 57212F04
     CRC копии 57212F04
     Копирование... OK

Ошибок не произошло


Конец отчёта
Приватный:
Нет (DHT включён)
Размер:
361.90 Мб (379,480,921 байт) » файлов: 13
Участники:
0 раздают, 0 качают (0 участников всего)
Внешние участники:
2 раздают, 1 качают (3 участников всего) [ Обновить ]
20:04
85
Нет комментариев. Ваш будет первым!