Поиск

1959 Dave Brubeck Quartet - Time Out (1997) {Columbia/Legacy CK 65122}

1959 Dave Brubeck Quartet - Time Out (1997) {Columbia/Legacy CK 65122}
Издатель (лейбл):
Состав:
  • Dave Brubeck – piano
  • Paul Desmond – alto saxophone
  • Eugene Wright – bass
  • Joe Morello – drums
  • Teo Macero – producer
  • Fred Plaut – engineer
 
Лог создания рипа
EAC extraction logfile from 13. December 2006, 8:55 for CD
The <a href="/artists/dave-brubeck.html">Dave Brubeck</a> Quartet / Time Out
Used drive  : ASUS    DRW-0804P   Adapter: 1  ID: 0
Read mode   : Secure with NO C2, accurate stream, disable cache
Read offset correction : 48
Overread into Lead-In and Lead-Out : No
Used output format : C:\Programmi\FLAC\flac.exe   (User Defined Encoder)
                     320 kBit/s
                     Additional command line options : -8 -V -T "artist=%a" -T "title=%t" -T "album=%g" -T "date=%y" -T "tracknumber=%n" -T "genre=%m" -T "comment=Exact Audio Copy 0.95 b5 Secure Mode / FLAC q8 v. 1.1.2" %s
Other options      :
    Fill up missing offset samples with silence : Yes
    Delete leading and trailing silent blocks : No
    Native Win32 interface for Win NT & 2000
Track  1
     Filename M:\The <a href="/artists/dave-brubeck.html">Dave Brubeck</a> Quartet - Time Out\01 - Blue Rondo a' la Turk.wav
     Pre-gap length  0:00:02.00
     Peak level 90.5 %
     Track quality 100.0 %
     Test CRC 780FC213
     Copy CRC 780FC213
     Copy OK
Track  2
     Filename M:\The <a href="/artists/dave-brubeck.html">Dave Brubeck</a> Quartet - Time Out\02 - Strange Meadow Lark.wav
     Pre-gap length  0:00:01.66
     Peak level 90.5 %
     Track quality 100.0 %
     Test CRC CDD567AD
     Copy CRC CDD567AD
     Copy OK
Track  3
     Filename M:\The <a href="/artists/dave-brubeck.html">Dave Brubeck</a> Quartet - Time Out\03 - Take Five.wav
     Pre-gap length  0:00:01.66
     Peak level 90.5 %
     Track quality 100.0 %
     Test CRC 2D3EDB27
     Copy CRC 2D3EDB27
     Copy OK
Track  4
     Filename M:\The <a href="/artists/dave-brubeck.html">Dave Brubeck</a> Quartet - Time Out\04 - Three to Get Ready.wav
     Pre-gap length  0:00:02.33
     Peak level 90.5 %
     Track quality 100.0 %
     Test CRC 66D02D78
     Copy CRC 66D02D78
     Copy OK
Track  5
     Filename M:\The <a href="/artists/dave-brubeck.html">Dave Brubeck</a> Quartet - Time Out\05 - Kathy's Waltz.wav
     Pre-gap length  0:00:01.66
     Peak level 90.5 %
     Track quality 99.9 %
     Test CRC 8021DBD3
     Copy CRC 8021DBD3
     Copy OK
Track  6
     Filename M:\The <a href="/artists/dave-brubeck.html">Dave Brubeck</a> Quartet - Time Out\06 - Everybody's Jumpin'.wav
     Pre-gap length  0:00:02.40
     Peak level 90.5 %
     Track quality 100.0 %
     Test CRC 5326C5DB
     Copy CRC 5326C5DB
     Copy OK
Track  7
     Filename M:\The <a href="/artists/dave-brubeck.html">Dave Brubeck</a> Quartet - Time Out\07 - Pick Up Sticks.wav
     Pre-gap length  0:00:01.77
     Peak level 90.5 %
     Track quality 100.0 %
     Test CRC D656806B
     Copy CRC D656806B
     Copy OK
No errors occured
End of status report
 
Содержание индексной карты (.CUE)
PERFORMER "The <a href="/artists/dave-brubeck.html">Dave Brubeck</a> Quartet"
TITLE "Time Out"
FILE "01 - Blue Rondo a' la Turk.wav" WAVE
  TRACK 01 AUDIO
    TITLE "Blue Rondo a' la Turk"
    PERFORMER "The <a href="/artists/dave-brubeck.html">Dave Brubeck</a> Quartet"
    INDEX 01 00:00:00
  TRACK 02 AUDIO
    TITLE "Strange Meadow Lark"
    PERFORMER "The <a href="/artists/dave-brubeck.html">Dave Brubeck</a> Quartet"
    INDEX 00 06:44:47
FILE "02 - Strange Meadow Lark.wav" WAVE
    INDEX 01 00:00:00
  TRACK 03 AUDIO
    TITLE "Take Five"
    PERFORMER "The <a href="/artists/dave-brubeck.html">Dave Brubeck</a> Quartet"
    INDEX 00 07:22:43
FILE "03 - Take Five.wav" WAVE
    INDEX 01 00:00:00
  TRACK 04 AUDIO
    TITLE "Three to Get Ready"
    PERFORMER "The <a href="/artists/dave-brubeck.html">Dave Brubeck</a> Quartet"
    INDEX 00 05:24:35
FILE "04 - Three to Get Ready.wav" WAVE
    INDEX 01 00:00:00
  TRACK 05 AUDIO
    TITLE "Kathy's Waltz"
    PERFORMER "The <a href="/artists/dave-brubeck.html">Dave Brubeck</a> Quartet"
    INDEX 00 05:24:15
FILE "05 - Kathy's Waltz.wav" WAVE
    INDEX 01 00:00:00
  TRACK 06 AUDIO
    TITLE "Everybody's Jumpin'"
    PERFORMER "The <a href="/artists/dave-brubeck.html">Dave Brubeck</a> Quartet"
    INDEX 00 04:48:12
FILE "06 - Everybody's Jumpin'.wav" WAVE
    INDEX 01 00:00:00
  TRACK 07 AUDIO
    TITLE "Pick Up Sticks"
    PERFORMER "The <a href="/artists/dave-brubeck.html">Dave Brubeck</a> Quartet"
    INDEX 00 04:23:05
FILE "07 - Pick Up Sticks.wav" WAVE
    INDEX 01 00:00:00

 

Номер по каталогу: CK 65122
Страна-производитель диска (релиза): USA
Дата записи диска: 25 июня, 1 июля и 18 августа 1959
Место записи: Columbia 30th Street Studio, New York City
Дата издания диска: 14 декабря 1959
Дата переиздания диска: 1997
Носитель: CD
Битрейт аудио: lossless
Аудиокодек: FLAC
Тип рипа: tracks+.cue
Время звучания: 38:37
Наличие сканов: да
Релизёр (источник): xramirez

Треклист:
01. Blue Rondo à la Turk – 6:44
02. Strange Meadow Lark – 7:22
03. Take Five – 5:24
04. Three to Get Ready – 5:24
05. Kathy's Waltz – 4:48
06. Everybody's Jumpin' – 4:23
07 .Pick Up Sticks – 4:16

Приватный:
Нет (DHT включён)
Размер:
262.33 Мб (275,071,641 байт) » файлов: 24
Участники:
0 раздают, 0 качают (0 участников всего)
Внешние участники:
--- [ Обновить ]
18:50
20
RSS
Нет комментариев. Ваш будет первым!