Поиск

1980 David Darling - Journal October - Solo Cello {ECM} [24-96]

1980 David Darling - Journal October - Solo Cello {ECM} [24-96]
Издатель (лейбл):
Битрейт аудио:
lossless
Релизёр (источник):
Qobuz

This album is available on our DC++ hub: dc.pro-jazz.com
Этот альбом доступен на нашем DC++ хабе: dc.pro-jazz.com

Состав:

Recorded October 1979 at Tonstudio Bauer, Ludwigsburg
Engineer: Martin Wieland
Produced by Manfred Eicher

Лог проверки качества
foobar2000 2.1.1 / Dynamic Range Meter 1.1.1
log date: 2024-02-22 16:19:26

--------------------------------------------------------------------------------
Analyzed: David Darling / Journal October - Solo Cello
--------------------------------------------------------------------------------

DR         Peak         RMS     Duration Track
--------------------------------------------------------------------------------
DR12      -1.90 dB   -18.56 dB     13:00 01-Slow Return
DR15      -8.36 dB   -30.54 dB      1:29 02-Bells And Gongs
DR11      -2.22 dB   -18.76 dB      3:42 03-Far Away Lights
DR13      -7.12 dB   -24.37 dB      5:47 04-Solo Cello I
DR11      -1.79 dB   -17.04 dB      3:18 05-Minor Blue
DR9       -1.26 dB   -13.90 dB      6:18 06-Clouds
DR11      -2.44 dB   -17.54 dB      6:27 07-Solo Cello II
DR12      -2.11 dB   -20.32 dB      2:59 08-Solo Cello And Voice
DR12      -2.24 dB   -19.27 dB     10:25 09-Journal October, Stuttgart
--------------------------------------------------------------------------------

Number of tracks:  9
Official DR value: DR12

Samplerate:        96000 Hz
Channels:          2
Bits per sample:   24
Bitrate:           2800 kbps
Codec:             FLAC
================================================================================
17:25
139
Нет комментариев. Ваш будет первым!