Поиск

1980 Arnett Cobb - Funky Butt (2021) {2xHD} [DSD256]

1980 Arnett Cobb - Funky Butt (2021) {2xHD} [DSD256]
Стили:
Дата записи диска:
22 января 1980
Место записи:
The Big Apple Studio, NY
Дата переиздания диска:
26 марта 2021
Издатель (лейбл):
Носитель:
WEB
Формат:
PCM
Тип рипа:
tracks
Контейнер:
FLAC (*.flac)
Количество каналов:
2.0
Разрядность/ЧД:
256 (11.2MHz/1bit)
Битрейт аудио:
lossless
Время звучания:
00:44:02
Наличие сканов:
буклет pdf

1. Jumpin' at the Woodside  04:32
2. Satin Doll  05:56
3. Georgia on My Mind  04:09
4. Funky Butt  05:48
5. I Got Rhythm  06:25
6. September in the Rain  05:53
7. Isfahan  06:10
8. Radium Springs Swings  04:46

Состав:
  •     Bass – Ray Drummond
  •     Drums – Ronnie Bedford
  •     Engineer – Fred Miller
  •     Executive Producer – Lars Edegran
  •     Executive Producer [2xHD] – André Perry
  •     Mastered By [2xHD] – René Laflamme
  •     Piano – Derek Smith
  •     Tenor Saxophone – Arnett Cobb
Лог проверки качества
foobar2000 1.6.8 / Dynamic Range Meter 1.1.1
log date: 2022-01-23 12:02:05
--------------------------------------------------------------------------------
Analyzed: Arnett Cobb / Arnett Cobb, Funky Butt
--------------------------------------------------------------------------------
DR         Peak         RMS     Duration Track
--------------------------------------------------------------------------------
DR13      -6.24 dB   -23.01 dB      4:34 01-Jumpin' At the Woodside
DR14      -7.37 dB   -24.34 dB      5:57 02-Satin Doll
DR14      -7.31 dB   -24.59 dB      4:12 03-Georgia On My Mind
DR14      -7.11 dB   -25.09 dB      5:50 04-Funky Butt
DR13      -7.58 dB   -24.21 dB      6:27 05-I Got Rhythm
DR14      -7.54 dB   -24.42 dB      5:56 06-September In the Rain
DR15      -7.73 dB   -26.87 dB      6:12 07-Isfahan
DR15      -8.89 dB   -26.76 dB      4:54 08-Radium Springs Swings
--------------------------------------------------------------------------------
Number of tracks:  8
Official DR value: DR14
Samplerate:        11289600 Hz / PCM Samplerate: 88200 Hz
Channels:          2
Bits per sample:   1
Bitrate:           22579 kbps
Codec:             DSD256
================================================================================
Приватный:
Нет (DHT включён)
Размер:
6.97 Гб (7,483,033,615 байт) » файлов: 11
Участники:
0 раздают, 0 качают (0 участников всего)
Внешние участники:
5 раздают, 1 качают (6 участников всего) [ Обновить ]
19:28
469
Нет комментариев. Ваш будет первым!