Поиск

1977 The Hampton Hawes All-Stars - Memory Lane Live {JAS} [24-96]

1977 The Hampton Hawes All-Stars - Memory Lane Live {JAS} [24-96]
Стили:
Место записи:
Memory Lane, Los Angeles, CA
Номер по каталогу:
4005
Носитель:
WEB
Формат:
PCM
Тип рипа:
tracks
Контейнер:
FLAC (*.flac)
Количество каналов:
2.0
Разрядность/ЧД:
24/96
Битрейт аудио:
lossless
Наличие сканов:
только обложка

Треклист:

1. Memory Lane Blues  06:23
2. Blues for J.L.  09:40
3. Feelin' Happy feat. Joe Turner  04:13
4. Shake, Rattle & Roll feat. Joe Turner  05:17
5. Teddy's Blues feat. Teddy Edwards  13:31

Состав:
  •     Alto Saxophone – Sonny Criss
  •     Bass – Leroy Vinnegar
  •     Drums – Bobby Thompson
  •     Liner Notes – Bob Kirstein
  •     Piano – Hampton Hawes
  •     Tenor Saxophone – Teddy Edwards (tracks: 5)
  •     Trumpet – Harry Edison
  •     Vocals – Joe Turner (tracks: 3, 4)
Доп. инфо:

From the T.V. Series "Jazz on Stage" recorded early in 1970

Лог проверки качества
foobar2000 1.6.10 / Dynamic Range Meter 1.1.1
log date: 2022-11-01 13:46:43

--------------------------------------------------------------------------------
Analyzed: Hampton Hawes / Memory Lane Live
--------------------------------------------------------------------------------

DR         Peak         RMS     Duration Track
--------------------------------------------------------------------------------
DR10      -1.17 dB   -12.84 dB      6:23 01-Memory Lane Blues
DR11      -1.18 dB   -13.87 dB      9:40 02-Blues for J.L.
DR10      -1.17 dB   -14.18 dB      4:13 03-Feelin' Happy
DR10      -1.17 dB   -12.90 dB      5:17 04-Shake, Rattle & Roll
DR8       -1.17 dB   -11.78 dB     13:32 05-Teddy's Blues
--------------------------------------------------------------------------------

Number of tracks:  5
Official DR value: DR10

Samplerate:        96000 Hz
Channels:          2
Bits per sample:   24
Bitrate:           2714 kbps
Codec:             FLAC
================================================================================
По всем вопросам пишите личное сообщение пользователю M0p94ok.
13:53
102
13:56