Поиск

1978 Barry Miles - Fusion is... (2019) {Gryphon} [24-96]

1978 Barry Miles - Fusion is... (2019) {Gryphon} [24-96]
Стили:
Дата записи диска:
1 ноября 1977
Место записи:
RCA Studios, New York City, NY, USA
Издатель (лейбл):
Носитель:
WEB
Формат:
PCM
Тип рипа:
tracks
Контейнер:
FLAC (*.flac)
Количество каналов:
2.0
Разрядность/ЧД:
24/96
Битрейт аудио:
lossless
Время звучания:
00:34:45
Наличие сканов:
только обложка

Треклист:

01 - Tandoori (06:56)
02 - Follow Me (04:53)
03 - Country Miles (06:26)
04 - Sunrise (05:44)
05 - Streams (04:27)
06 - Routes (06:16)

Состав:
  • Dick Baxter     Engineer
  • Jon Burr     Bass
  • Glen Glancy     Executive Producer, Supervisor
  • Keith Grant     Engineer, Recording Director
  • Vic Juris     Composer, Guitar
  • Barry Miles     Composer, Fender Rhodes, Mini Moog, Piano
  • Norman Schwartz     Photography, Producer
  • Terry Silverlight     Composer, Drums
Лог проверки качества
foobar2000 1.4.2 / Dynamic Range Meter 1.1.1
log date: 2021-07-24 12:26:13
--------------------------------------------------------------------------------
Analyzed: Barry Miles / Fusion is...
--------------------------------------------------------------------------------
DR         Peak         RMS     Duration Track
--------------------------------------------------------------------------------
DR14      -1.22 dB   -18.32 dB      6:56 01-Tandoori
DR15      -1.22 dB   -22.90 dB      4:53 02-Follow Me
DR13      -1.21 dB   -17.15 dB      6:27 03-Country Miles
DR13      -1.21 dB   -18.32 dB      5:44 04-Sunrise
DR13      -9.68 dB   -26.67 dB      4:27 05-Streams
DR12      -1.21 dB   -15.24 dB      6:17 06-Routes
--------------------------------------------------------------------------------
Number of tracks:  6
Official DR value: DR14
Samplerate:        96000 Hz
Channels:          2
Bits per sample:   24
Bitrate:           2833 kbps
Codec:             FLAC
================================================================================
По всем вопросам пишите личное сообщение пользователю M0p94ok.
17:52
182
Нет комментариев. Ваш будет первым!