Поиск

1978, 1981 (2004) Art Blakey & The Jazz Messengers — Blakey's Beat (2CD)

1978, 1981 (2004) Art Blakey & The Jazz Messengers — Blakey's Beat (2CD)
Стили:
Страна-производитель диска (релиза):
USA
Дата записи диска:
1978, 1981
Дата издания диска:
23 марта 2004
Издатель (лейбл):
Номер по каталогу:
CCD2-2234
Носитель:
CD
Битрейт аудио:
lossless
Аудиокодек:
FLAC (*.flac)
Тип рипа:
tracks+.cue
Время звучания:
61:58 + 40:42
Наличие сканов:
  • web
Релизёр (источник):
JanV
Треклист:

CD 1: In This Korner (1978)
01. Art Blakey Intro (Blakey) 1:17
02. Pamela (Watson) 9:31
03. Unlimited (Williams) 6:36
04. In This Korner (Williams) 7:47
05. The Song Is You (Hammerstein, Kern) 7:28
06. Dark Side, Light Side (Cables) 10:11
07. 1977 A.D. (Williams) 10:19
08. Blue for Two (Ponomarev) 7:33

CD 2: Straight Ahead (1981)
01. Falling in Love With Love (Hart, Rodgers) 7:53
02. My Romance (Hart, Rodgers) 3:42
03. Webb City (Powell) 10:00
04. How Deep Is the Ocean? (Berlin) 9:45
05. E.T.A. (Watson) 6:10
06. The Theme (Davis) 3:07

Состав:
CD 1: In This Korner (1978)
  • Art Blakey, drums
  • Valeri Ponomarev, trumpet
  • Robet Watson, alto saxophone
  • David Schnitter, tenor saxophone
  • James Williams, piano
  • Dennis Irwin,bass
CD 2: Straight Ahead (1981)
  • Art Blakey, drums
  • Charles Fambrough, bass
  • Wynton Marsalis, trumpet
  • Bill Pierce, tenor saxophone
  • Bobby Watson, alto saxophone
  • James Williams, piano
Лог создания рипа
<spoiler title="CD01"><pre>Отчёт EAC об извлечении, выполненном 8. октября 2007, 23:05 для диска:
Art Blakey and the Messengers / In This Korner
Дисковод: TSSTcorpCD/DVDW SH-S182D Adapter: 1 ID: 0
Режим чтения: Достоверный (C2: нет, Точный поток: да, Отключение кэша: да)
Комбинированное смещение чтения/записи: 0
Способность читать области Lead-in и Lead-out : Нет
Выходной формат: Внутренние WAV-операции
44.100 Гц; 16 бит; стерео
Другие параметры:
Заполнение пропущенных сэмплов тишиной : Да
Удаление блоков с тишиной в начале и конце : Нет
Встроенный Win32-интерфейс для Win NT/2000
Трек 1
Имя файла C:\Documents and Settings\Andreas\Мои документы\Моя музыка\transf\Art Blakey\1978 In This Korner\01 - Art Blakey Intro.wav
Пиковый уровень 62.7 %
Качество трека 100.0 %
CRC теста 10E0679D
CRC копии 10E0679D
Копирование... OK
Трек 2
Имя файла C:\Documents and Settings\Andreas\Мои документы\Моя музыка\transf\Art Blakey\1978 In This Korner\02 - Pamela.wav
Пиковый уровень 89.7 %
Качество трека 99.9 %
CRC теста 8C9ACB5A
CRC копии 8C9ACB5A
Копирование... OK
Трек 3
Имя файла C:\Documents and Settings\Andreas\Мои документы\Моя музыка\transf\Art Blakey\1978 In This Korner\03 - Unlimited.wav
Пиковый уровень 91.4 %
Качество трека 100.0 %
CRC теста 96973311
CRC копии 96973311
Копирование... OK
Трек 4
Имя файла C:\Documents and Settings\Andreas\Мои документы\Моя музыка\transf\Art Blakey\1978 In This Korner\04 - In This Korner.wav
Пиковый уровень 73.1 %
Качество трека 100.0 %
CRC теста A466083E
CRC копии A466083E
Копирование... OK
Трек 5
Имя файла C:\Documents and Settings\Andreas\Мои документы\Моя музыка\transf\Art Blakey\1978 In This Korner\05 - The Song is You.wav
Пиковый уровень 89.3 %
Качество трека 100.0 %
CRC теста 2DD7C363
CRC копии 2DD7C363
Копирование... OK
Трек 6
Имя файла C:\Documents and Settings\Andreas\Мои документы\Моя музыка\transf\Art Blakey\1978 In This Korner\06 - Dark Side, Light Side.wav
Пиковый уровень 99.0 %
Качество трека 100.0 %
CRC теста C82E4680
CRC копии C82E4680
Копирование... OK
Трек 7
Имя файла C:\Documents and Settings\Andreas\Мои документы\Моя музыка\transf\Art Blakey\1978 In This Korner\07 - 1977 AD.wav
Пиковый уровень 98.7 %
Качество трека 100.0 %
CRC теста 8EFA9753
CRC копии 8EFA9753
Копирование... OK
Трек 8
Имя файла C:\Documents and Settings\Andreas\Мои документы\Моя музыка\transf\Art Blakey\1978 In This Korner\08 - Blues for Two.wav
Пиковый уровень 68.6 %
Качество трека 100.0 %
CRC теста A04CC769
CRC копии A04CC769
Копирование... OK
Ошибок не произошло
Конец отчёта</pre></spoiler><spoiler title="CD02"><pre>Отчёт EAC об извлечении, выполненном 8. октября 2007, 23:47 для диска:
Art Blakey and The Jazz Messengers / Straight Ahead
Дисковод: TSSTcorpCD/DVDW SH-S182D Adapter: 1 ID: 0
Режим чтения: Достоверный (C2: нет, Точный поток: да, Отключение кэша: да)
Комбинированное смещение чтения/записи: 0
Способность читать области Lead-in и Lead-out : Нет
Выходной формат: Внутренние WAV-операции
44.100 Гц; 16 бит; стерео
Другие параметры:
Заполнение пропущенных сэмплов тишиной : Да
Удаление блоков с тишиной в начале и конце : Нет
Встроенный Win32-интерфейс для Win NT/2000
Трек 1
Имя файла C:\Documents and Settings\Andreas\Мои документы\Моя музыка\transf\Art Blakey\Blakey's Beat\1981 Straight Ahead\01 - Falling in Love With Love.wav
Пиковый уровень 91.4 %
Качество трека 100.0 %
CRC теста A113FF8E
CRC копии A113FF8E
Копирование... OK
Трек 2
Имя файла C:\Documents and Settings\Andreas\Мои документы\Моя музыка\transf\Art Blakey\Blakey's Beat\1981 Straight Ahead\02 - My Romance.wav
Пиковый уровень 94.0 %
Качество трека 100.0 %
CRC теста 69ED7FF2
CRC копии 69ED7FF2
Копирование... OK
Трек 3
Имя файла C:\Documents and Settings\Andreas\Мои документы\Моя музыка\transf\Art Blakey\Blakey's Beat\1981 Straight Ahead\03 - Webb City.wav
Пиковый уровень 97.2 %
Качество трека 100.0 %
CRC теста 1DA1F499
CRC копии 1DA1F499
Копирование... OK
Трек 4
Имя файла C:\Documents and Settings\Andreas\Мои документы\Моя музыка\transf\Art Blakey\Blakey's Beat\1981 Straight Ahead\04 - How Deep is the Ocean.wav
Пиковый уровень 97.4 %
Качество трека 100.0 %
CRC теста 87F74B23
CRC копии 87F74B23
Копирование... OK
Трек 5
Имя файла C:\Documents and Settings\Andreas\Мои документы\Моя музыка\transf\Art Blakey\Blakey's Beat\1981 Straight Ahead\05 - E.T.A..wav
Пиковый уровень 100.0 %
Качество трека 99.9 %
CRC теста 5B80F402
CRC копии 5B80F402
Копирование... OK
Трек 6
Имя файла C:\Documents and Settings\Andreas\Мои документы\Моя музыка\transf\Art Blakey\Blakey's Beat\1981 Straight Ahead\06 - The Theme.wav
Пиковый уровень 99.0 %
Качество трека 100.0 %
CRC теста B670348F
CRC копии B670348F
Копирование... OK
Ошибок не произошло
Конец отчёта</pre></spoiler>
Приватный:
Нет (DHT включён)
Размер:
630.99 Мб (661,638,909 байт) » файлов: 23
Участники:
0 раздают, 0 качают (0 участников всего)
Внешние участники:
2 раздают, 1 качают (3 участников всего) [ Обновить ]
05:54
98
RSS
Нет комментариев. Ваш будет первым!