Поиск

1967 (1998) Miles Davis - Nefertiti

1967 (1998) Miles Davis - Nefertiti
Страна-производитель диска (релиза):
USA
Дата записи диска:
7 июня - 19 июля 1967
Дата издания диска:
1967
Дата переиздания диска:
1998
Издатель (лейбл):
Номер по каталогу:
CK 65681
Носитель:
CD
Битрейт аудио:
lossless
Аудиокодек:
FLAC (*.flac)
Тип рипа:
tracks+.cue
Время звучания:
62:34
Наличие сканов:
  • да
Треклист:
01. Nefertiti 7:55
02. Fall 6:39
03. Hand Jive 8:58
04. Madness 7:33
05. Riot 3:05
06. Pinocchio 5:09
07. Hand Jive (First Alternate Take) 6:52
08. Hand Jive (Second Alternate Take) 8:17
09. Madness (Alternate Take) 6:46
10. Pinocchio (Alternate Take) 5:09
Состав:
  • Ron Carter Bass,
  • Miles Davis Trumpet
  • John Ephland Liner Notes
  • Herbie Hancock Composer, Piano, Piano (Electric)
  • Teo Macero Producer
  • Ray Moore Engineer
  • Fred Plaut Engineer
  • Howard Roberts Producer
  • Wayne Shorter Composer, Sax (Tenor)
  • Stanley Tonkel Engineer
  • Tony Williams Composer, Drums
Об альбоме (сборнике):
Об альбоме (сборнике)
Nefertiti — четвертый альбом классического второго квинтета Майлза Дэвиса. Можно сказать — один из самых лучших у этого состава и тем самым не сказать ничего, ибо каждый альбом этого коллектива — настоящее произведение искусства.
Примечателен тот факт, что это последний полностью акустический альбом Майлза.
Лог создания рипа
EAC extraction logfile from 14. February 2007, 18:39 for CD
Miles Davis / Nefertiti
Used drive : TSSTcorpCD/DVDW TS-L632D Adapter: 0 ID: 1
Read mode : Secure with NO C2, accurate stream, disable cache
Read offset correction : 6
Overread into Lead-In and Lead-Out : No
Used output format : Internal WAV Routines
44.100 Hz; 16 Bit; Stereo
Other options :
Fill up missing offset samples with silence : Yes
Delete leading and trailing silent blocks : No
Installed external ASPI interface
Track 1
Filename C:\Documents and Settings\user\Documenti\Musica\01Nefertiti.wav
Pre-gap length 0:00:02.00
Peak level 97.7 %
Track quality 100.0 %
Test CRC 3C7885D9
Copy CRC 3C7885D9
Copy OK
Track 2
Filename C:\Documents and Settings\user\Documenti\Musica\02Fall.wav
Pre-gap length 0:00:03.60
Peak level 97.7 %
Track quality 99.9 %
Test CRC 92FC28AB
Copy CRC 92FC28AB
Copy OK
Track 3
Filename C:\Documents and Settings\user\Documenti\Musica\03Hand Jive.wav
Pre-gap length 0:00:03.16
Peak level 97.7 %
Track quality 100.0 %
Test CRC C27EA94B
Copy CRC C27EA94B
Copy OK
Track 4
Filename C:\Documents and Settings\user\Documenti\Musica\04Madness.wav
Pre-gap length 0:00:02.93
Peak level 97.7 %
Track quality 100.0 %
Test CRC BC007644
Copy CRC BC007644
Copy OK
Track 5
Filename C:\Documents and Settings\user\Documenti\Musica\05Riot.wav
Pre-gap length 0:00:01.80
Peak level 99.5 %
Track quality 100.0 %
Test CRC 406C6F56
Copy CRC 406C6F56
Copy OK
Track 6
Filename C:\Documents and Settings\user\Documenti\Musica\06Pinocchio.wav
Pre-gap length 0:00:02.40
Peak level 100.0 %
Track quality 100.0 %
Test CRC F5858D84
Copy CRC F5858D84
Copy OK
Track 7
Filename C:\Documents and Settings\user\Documenti\Musica\07Hand Jive (First Alternate Take).wav
Pre-gap length 0:00:03.20
Peak level 74.1 %
Track quality 99.9 %
Test CRC FD568D08
Copy CRC FD568D08
Copy OK
Track 8
Filename C:\Documents and Settings\user\Documenti\Musica\08Hand Jive (Second Alternate Take).wav
Pre-gap length 0:00:02.70
Peak level 74.1 %
Track quality 100.0 %
Test CRC F5C6C63A
Copy CRC F5C6C63A
Copy OK
Track 9
Filename C:\Documents and Settings\user\Documenti\Musica\09Madness (Alternate Take).wav
Pre-gap length 0:00:03.30
Peak level 74.1 %
Track quality 99.9 %
Test CRC 8C3E716C
Copy CRC 8C3E716C
Copy OK
Track 10
Filename C:\Documents and Settings\user\Documenti\Musica\10Pinocchio (Alternate Take).wav
Pre-gap length 0:00:03.06
Peak level 97.7 %
Track quality 100.0 %
Test CRC 7E20FE28
Copy CRC 7E20FE28
Copy OK
No errors occured
End of status report
Приватный:
Нет (DHT включён)
Размер:
432.41 Мб (453,415,560 байт) » файлов: 25
Участники:
1 раздают, 0 качают (1 участников всего)
Внешние участники:
7 раздают, 2 качают (9 участников всего) [ Обновить ]
14:53
81
RSS
Нет комментариев. Ваш будет первым!