Поиск

1978, 1979 The L.A. Four - Two by Four (2CD) (2003) {Concord CCD 221762}

1978, 1979 The L.A. Four - Two by Four (2CD) (2003) {Concord CCD 221762}
Издатель (лейбл):
Состав:
  • Laurindo Almeida Arranger, Composer, Guitar
  • Ray Brown Arranger, Bass
  • John Etchells Engineer
  • Leonard Feather Liner Notes
  • Jeff Hamilton Composer, Drums
  • Carl E. Jefferson Producer
  • Gordon Raddue Liner Notes
  • Bud Shank Arranger, Composer, Flute, Sax (Alto)

Страна-производитель диска (релиза): USA
Дата записи диска: 5 мая 1978, 14 июля 1979
Дата издания диска: 10 июля 2003
Номер по каталогу: CCD 221762
Носитель: CD
Битрейт аудио: lossless
Аудиокодек: FLAC (*flac)
Тип рипа: tracks
Время звучания: 01:29:39
Наличие сканов: да
Релизёр (источник): JanV

Треклист:
CD1: Watch What Happens
01. Watch What Happens (Demy, Gimbel, Legrand) 5:18
02. Summertime (Gershwin, Heyward) 5:10
03. Mona Lisa (Evans, Livingston) 4:51
04. Williwaw (Almeida, Shank) 5:28
05. Land of Make Believe (Mangione) 6:50
06. Nuages (Reinhardt, Williams) 5:44
07. Misty (Burke, Garner) 7:42
CD2: Live at Montreux Summer 1979
01. I Love You (Porter) 8:14
02. Hammertones (Hamilton) 7:18
03. Just in Time (Comden, Green, Styne) 6:37
04. Return of Captain Gallo (Almeida) 8:50
05. Duke's Melange 14:06
     5.1. I Let a Song Out of My Heart
     5.2. Caravan
     5.3. Take the 'A' Trane
     5.4. Rockin' in Rhythm

 
Лог создания рипа CD01

Отчёт EAC об извлечении, выполненном 30. ноября 2007, 12:01 для диска:
L.A. 4 / Watch What Happens
Дисковод: TSSTcorpCDDVDW SH-S203D Adapter: 2 ID: 1
Режим чтения: Достоверный (C2: нет, Точный поток: да, Отключение кэша: да)
Коррекция смещения при чтении: 0
Способность читать области Lead-in и Lead-out : Нет
Выходной формат: Внутренние WAV-операции
44.100 Гц; 16 бит; стерео
Другие параметры:
Заполнение пропущенных сэмплов тишиной : Да
Удаление блоков с тишиной в начале и конце : Нет
Встроенный Win32-интерфейс для Win NT/2000
Трек 1
Имя файла C:\Documents and Settings\EACtemp\01 - Watch What Happens.wav
Пиковый уровень 74.8 %
Качество трека 100.0 %
CRC теста 2AA2E2A6
CRC копии 2AA2E2A6
Копирование... OK
Трек 2
Имя файла C:\Documents and Settings\EACtemp\02 - Summertime.wav
Пиковый уровень 76.0 %
Качество трека 99.9 %
CRC теста 851357F5
CRC копии 851357F5
Копирование... OK
Трек 3
Имя файла C:\Documents and Settings\EACtemp\03 - Mona Lisa.wav
Пиковый уровень 33.9 %
Качество трека 100.0 %
CRC теста 807B1B31
CRC копии 807B1B31
Копирование... OK
Трек 4
Имя файла C:\Documents and Settings\EACtemp\04 - Williwaw.wav
Пиковый уровень 100.0 %
Качество трека 100.0 %
CRC теста 48AD797C
CRC копии 48AD797C
Копирование... OK
Трек 5
Имя файла C:\Documents and Settings\EACtemp\05 - Land of Make Believe.wav
Пиковый уровень 100.0 %
Качество трека 99.9 %
CRC теста E22DA41A
CRC копии E22DA41A
Копирование... OK
Трек 6
Имя файла C:\Documents and Settings\EACtemp\06 - Nuages.wav
Пиковый уровень 74.9 %
Качество трека 100.0 %
CRC теста 4431BC12
CRC копии 4431BC12
Копирование... OK
Трек 7
Имя файла C:\Documents and Settings\EACtemp\07 - Misty.wav
Пиковый уровень 87.2 %
Качество трека 100.0 %
CRC теста 24787EAB
CRC копии 24787EAB
Копирование... OK
Ошибок не произошло
Конец отчёта

 
Лог создания рипа CD02

Отчёт EAC об извлечении, выполненном 30. ноября 2007, 12:38 для диска:
L.A. Four / Live At Montreux
Дисковод: TSSTcorpCDDVDW SH-S203D Adapter: 2 ID: 1
Режим чтения: Достоверный (C2: нет, Точный поток: да, Отключение кэша: да)
Коррекция смещения при чтении: 0
Способность читать области Lead-in и Lead-out : Нет
Выходной формат: Внутренние WAV-операции
44.100 Гц; 16 бит; стерео
Другие параметры:
Заполнение пропущенных сэмплов тишиной : Да
Удаление блоков с тишиной в начале и конце : Нет
Встроенный Win32-интерфейс для Win NT/2000
Трек 1
Имя файла C:\Documents and Settings\EACtemp\01 - I Love You.wav
Пиковый уровень 93.6 %
Качество трека 100.0 %
CRC теста 1B7EB8AA
CRC копии 1B7EB8AA
Копирование... OK
Трек 2
Имя файла C:\Documents and Settings\EACtemp\02 - Hammertones.wav
Пиковый уровень 95.3 %
Качество трека 100.0 %
CRC теста 2648F30F
CRC копии 2648F30F
Копирование... OK
Трек 3
Имя файла C:\Documents and Settings\EACtemp\03 - Just in Time.wav
Подозрительная позиция 0:01:47
Пиковый уровень 99.9 %
Качество трека 99.8 %
CRC теста 842BB49C
CRC копии 842BB49C
Копирование завершено
Трек 4
Имя файла C:\Documents and Settings\EACtemp\04 - Return Of Captain Gallo.wav
Пиковый уровень 99.8 %
Качество трека 99.9 %
CRC теста D6A99B6E
CRC копии D6A99B6E
Копирование... OK
Трек 5
Имя файла C:\Documents and Settings\EACtemp\05 - Dukes Melange.wav
Пиковый уровень 96.7 %
Качество трека 100.0 %
CRC теста CB0E3EBB
CRC копии CB0E3EBB
Копирование... OK
Были ошибки
Конец отчёта

 
Back Cover

 

Скачивание доступно после регистрации!!
Приватный:
Нет (DHT включён)
Размер:
459.17 Мб (481,473,384 байт) » файлов: 21
Участники:
2 раздают, 10 качают (12 участников всего)
Внешние участники:
--- [ Обновить ]
21:03
79
RSS
Нет комментариев. Ваш будет первым!