Поиск

1962 Paul Desmond & Gerry Mulligan - Two of A Mind (1989) {RCA Bluebird ND90364}

1962 Paul Desmond & Gerry Mulligan - Two of A Mind (1989) {RCA Bluebird ND90364}
Стили:
Издатель (лейбл):

Состав:
  • Alto Saxophone – Paul Desmond
  • Baritone Saxophone – Gerry Mulligan
  • Bass – Joe Benjamin (tracks: 3, 5, 6), John Beal (tracks: 4), Wendell Marshall (tracks: 1, 2)
  • Drums – Connie Kay (tracks: 1, 2, 4), Mel Lewis (tracks: 3, 5, 6)
  • Engineer – Bob Simpson (tracks: 3, 5, 6), Mickey Crofford (tracks: 4), Ray Hall (tracks: 1, 2)
  • Executive-Producer – Steve Backer
  • Liner Notes – Will Thornbury
  • Producer – Bob Prince

Страна-производитель диска (релиза): USA
Дата записи диска: 26 июня (#4), 3 июля (#1,2) и 13 августа (#3,5,6) 1962
Место записи:

  • RCA Recording Studio A, New York, NY
  • Webster Hall, New York, NY

Дата издания диска: 1962
Дата переиздания диска: 1989
Номер по каталогу: ND90364
Носитель: CD
Битрейт аудио: lossless
Аудиокодек: FLAC (*.flac)
Тип рипа: tracks
Время звучания: 40:39
Наличие сканов: да
Релизёр (источник): smikliaev

Треклист:
1. All the Things You Are (5:49)
2. Stardust (8:22)
3. Two of a Mind (5:47)
4. Blight of the Fumble Bee (6:35)
5. The Way You Look Tonight (7:21)
6. Out of Nowhere (6:45)

 
Лог создания рипа

EAC extraction logfile from 19. October 2006, 22:27 for CD
Paul Desmond, Gerry Mulligan / Two of a Mind
Used drive : HL-DT-STDVD-ROM GDR8162B Adapter: 1 ID: 1
Read mode : Secure with NO C2, accurate stream, disable cache
Read offset correction : 102
Overread into Lead-In and Lead-Out : No
Used output format : C:\Programmi\Exact Audio Copy\flac.exe (User Defined Encoder)
128 kBit/s
Additional command line options : -V -8 -T "artist=%a" -T "title=%t" -T "album=%g" -T "date=%y" -T "tracknumber=%n" -T "genre=%m" %s
Other options :
Fill up missing offset samples with silence : Yes
Delete leading and trailing silent blocks : No
Installed external ASPI interface
Track 1
Filename D:\TORRENTS\Paul Desmond - Gerry Mulligan - Two of A Mind (1962) [FLAC]\01 - All the Things You Are.wav
Pre-gap length 0:00:02.42
Peak level 58.4 %
Track quality 100.0 %
Test CRC FC8E50E0
Copy CRC FC8E50E0
Copy OK
Track 2
Filename D:\TORRENTS\Paul Desmond - Gerry Mulligan - Two of A Mind (1962) [FLAC]\02 - Stardust.wav
Peak level 59.4 %
Track quality 100.0 %
Test CRC 71ABC733
Copy CRC 71ABC733
Copy OK
Track 3
Filename D:\TORRENTS\Paul Desmond - Gerry Mulligan - Two of A Mind (1962) [FLAC]\03 - Two of a Mind.wav
Peak level 72.6 %
Track quality 100.0 %
Test CRC 91B3C0CB
Copy CRC 91B3C0CB
Copy OK
Track 4
Filename D:\TORRENTS\Paul Desmond - Gerry Mulligan - Two of A Mind (1962) [FLAC]\04 - Blight of the Fumble Bee.wav
Pre-gap length 0:00:01.00
Peak level 55.1 %
Track quality 100.0 %
Test CRC BDFD5E5F
Copy CRC BDFD5E5F
Copy OK
Track 5
Filename D:\TORRENTS\Paul Desmond - Gerry Mulligan - Two of A Mind (1962) [FLAC]\05 - The Way You Look Tonight.wav
Pre-gap length 0:00:00.36
Peak level 55.1 %
Track quality 99.9 %
Test CRC 3064124B
Copy CRC 3064124B
Copy OK
Track 6
Filename D:\TORRENTS\Paul Desmond - Gerry Mulligan - Two of A Mind (1962) [FLAC]\06 - Out of Nowhere.wav
Peak level 51.5 %
Track quality 100.0 %
Test CRC 20C4FE1E
Copy CRC 20C4FE1E
Copy OK
No errors occured
End of status report

 

Приватный:
Нет (DHT включён)
Размер:
245.51 Мб (257,439,329 байт) » файлов: 16
Участники:
5 раздают, 0 качают (5 участников всего)
Внешние участники:
--- [ Обновить ]
23:21
46
RSS
Нет комментариев. Ваш будет первым!