Поиск

1977 Dexter Gordon - Sophisticated Giant (2018) {Columbia, Legacy} [24-192]

1977 Dexter Gordon - Sophisticated Giant (2018) {Columbia, Legacy} [24-192]
Стили:
Издатель (лейбл):
Состав:
  • Wayne Andre Trombone
  • Benny Bailey Flugelhorn, Trumpet
  • George Cables Piano
  • Michael Cuscuna Liner Notes, Original Recording Producer, Producer, Reissue Producer
  • Curtis Fuller Trombone
  • Ira Gitler Liner Notes
  • Eddie Gladden Drums
  • Dexter Gordon Composer, Sax (Soprano), Sax (Tenor)
  • Slide Hampton Arranger, Trombone
  • Bobby Hutcherson Vibe Master, Vibraphone
  • Eddie Jefferson Composer, Vocals
  • Howard Johnson Sax (Baritone), Tuba
  • Victor Lewis Drums
  • Bruce Lundvall Liner Notes
  • Rufus Reid Bass
  • Woody Shaw Composer, Flugelhorn, Trumpet
  • Frank Wess Flute, Piccolo, Sax (Alto)

Rec.: Sound Ideas, New York City, NY, June 21 & 22, 1977.

Формат записи/Источник записи: [TR24][OF]
Наличие водяных знаков: Нет
Год издания/переиздания диска: 1977/2018
Продолжительность: 45:58
Наличие сканов в содержимом раздачи: Только обложка альбома
Источник: WRZmusic
Контейнер: FLAC (*.flac)
Тип рипа: tracks
Разрядность: 24/192
Формат: PCM
Количество каналов: 2.0
Магазин: qobuz.com

Треклист:
01. Laura (7:42)
02. The Moontrane (6:39)
03. Red Top (8:54)
04. Fried Bananas (7:56)
05. You're Blasé (9:53)
06. How Insensitive (4:55)

 
Лог проверки качества
foobar2000 1.3.9 / Dynamic Range Meter 1.1.1
log date: 2018-07-05 12:01:35
--------------------------------------------------------------------------------
Analyzed: Dexter Gordon / Sophisticated Giant
--------------------------------------------------------------------------------
DR         Peak         RMS     Duration Track
--------------------------------------------------------------------------------
DR12      -0.50 dB   -18.35 dB      7:42 01-Laura
DR13      -0.50 dB   -15.58 dB      6:39 02-The Moontrane
DR13      -0.50 dB   -16.24 dB      8:54 03-Red Top
DR14      -0.50 dB   -18.04 dB      7:56 04-Fried Bananas
DR15      -0.50 dB   -18.58 dB      9:53 05-You're Blasé
DR13      -0.50 dB   -16.43 dB      4:55 06-How Insensitive
--------------------------------------------------------------------------------
Number of tracks:  6
Official DR value: DR13
Samplerate:        192000 Hz
Channels:          2
Bits per sample:   24
Bitrate:           4668 kbps
Codec:             FLAC
================================================================================

 

Скачивание доступно после регистрации!!
Приватный:
Нет (DHT включён)
Размер:
1.51 Гб (1,620,278,988 байт) » файлов: 9
Участники:
0 раздают, 0 качают (0 участников всего)
Внешние участники:
11 раздают, 4 качают (15 участников всего) [ Обновить ]
11:04
647
RSS
Нет комментариев. Ваш будет первым!