Вы используете незарегистрированную версию компонента "Вкладки"!

Поиск

1976 Ron Carter - Yellow & Green (2017) {King} [24-192]

1976 Ron Carter - Yellow & Green (2017) {King} [24-192]
Стили:
Место записи:
Van Gelder Recording Studio, Englewood Cliffs, New Jersey
Издатель (лейбл):
Битрейт аудио:
lossless
Доп. инфо:

Формат записи/Источник записи: [TR24][OF]
Издание: Remastered
Год издания/переиздания диска: 1976/2017
Продолжительность: 00:36:51
Наличие сканов в содержимом раздачи: Нет

Контейнер: FLAC (*.flac)
Тип рипа: tracks
Разрядность: 24/192
Количество каналов: 2.0

Источник (релизер): King Jazz $ Classics

Лог проверки качества
foobar2000 1.4.3 / Dynamic Range Meter 1.1.1
log date: 2020-03-23 20:49:52

--------------------------------------------------------------------------------
Analyzed: Ron Carter / Yellow & Green
--------------------------------------------------------------------------------

DR         Peak         RMS     Duration Track
--------------------------------------------------------------------------------
DR13      -0.01 dB   -15.68 dB      7:46 01-Tenaj
DR11      -0.01 dB   -13.41 dB      7:07 02-Receipt, Please
DR14      -2.64 dB   -19.94 dB      2:40 03-Willow Weep For Me
DR10      -0.01 dB   -11.47 dB      6:14 04-Yellow and Green
DR12      -0.01 dB   -15.47 dB      6:57 05-Opus 15
DR11      -0.01 dB   -12.50 dB      6:08 06-Epistrophy
--------------------------------------------------------------------------------

Number of tracks:  6
Official DR value: DR12

Samplerate:        192000 Hz
Channels:          2
Bits per sample:   24
Bitrate:           5461 kbps
Codec:             FLAC
================================================================================
Any questions - support@pro-jazz.com. Есть вопросы - support@pro-jazz.com
15:34
264
Нет комментариев. Ваш будет первым!