Поиск

1976 Milt Buckner - Milt Buckner & His Alumni (1998) {Black&Blue BB 909.2} [CD]

1976 Milt Buckner - Milt Buckner & His Alumni (1998) {Black&Blue BB 909.2} [CD]
Стили:
Дата записи диска:
30 апреля, 6, 12, 20 мая 1976
Место записи:
Paris and Toulouse, France
Дата издания диска:
1998
Издатель (лейбл):
Номер по каталогу:
BB 909.2
Носитель:
CD
Тип рипа:
image
Аудиокодек:
FLAC (*.flac)
Битрейт аудио:
lossless
Время звучания:
01:05:12
Наличие сканов:
буклет pdf
Страна-производитель диска (релиза):
France
Релизёр (источник):
M0p94ok

Треклист:

01. Hamp's Boogie Woogie  05:29
02. Hey Ba Be Re Bop  04:16
03. Where or When  06:28
04. Pour toutes mes soeurs  04:37
05. Encore Flying Home  06:00
06. Sleep  03:02
07. Million Dollar Smile  02:59
08. King Porter Stomp  06:37
09. A Ghost of a Chance  05:26
10. Milt's Boogie Woogie  03:30
11. Bill Bailey, Won't You Please Come Home  04:20
12. Margie 04:49
13. Green Onions  07:31

Лог создания рипа
Exact Audio Copy V1.1 from 23. June 2015

Отчёт EAC об извлечении, выполненном 19. августа 2017, 10:56

Milt Buckner  / Milt Buckner & His Alumni

Дисковод: ASUS    DRW-24B3ST   Adapter: 0  ID: 0

Режим чтения                 : Достоверность
Использование точного потока : Да
Отключение кэша аудио        : Да
Использование указателей C2  : Нет

Коррекция смещения при чтении                     : 6
Способность читать области Lead-in и Lead-out     : Нет
Заполнение пропущенных сэмплов тишиной            : Да
Удаление блоков с тишиной в начале и конце        : Нет
При вычислениях CRC использовались нулевые сэмплы : Да
Интерфейс                                         : Установленный внешний ASPI-интерфейс

Выходной формат          : Пользовательский кодировщик
Выбранный битрейт        : 1024 kBit/s
Качество                 : Высокий
Добавление ID3-тега      : Нет
Утилита сжатия           : C:\Program Files (x86)\Exact Audio Copy\Flac\flac.exe
Дополнительные параметры : -V -8 -T "Date=%year%" -T "Genre=%genre%" %source%


TOC извлечённого CD

     Трек |   Старт  | Длительность | Начальный сектор | Конечный сектор 
    ---------------------------------------------------------------------
       1  |  0:00.00 |    5:29.62   |           0      |      24736      
       2  |  5:29.62 |    4:16.58   |       24737      |      43994      
       3  |  9:46.45 |    6:28.20   |       43995      |      73114      
       4  | 16:14.65 |    4:37.05   |       73115      |      93894      
       5  | 20:51.70 |    6:00.45   |       93895      |     120939      
       6  | 26:52.40 |    3:02.32   |      120940      |     134621      
       7  | 29:54.72 |    2:59.73   |      134622      |     148119      
       8  | 32:54.70 |    6:37.32   |      148120      |     177926      
       9  | 39:32.27 |    5:26.20   |      177927      |     202396      
      10  | 44:58.47 |    3:30.25   |      202397      |     218171      
      11  | 48:28.72 |    4:20.30   |      218172      |     237701      
      12  | 52:49.27 |    4:49.45   |      237702      |     259421      
      13  | 57:38.72 |    7:31.23   |      259422      |     293269      


Характеристики диапазона извлечения и сообщения об ошибках

Выбранный диапазон

     Имя файла E:\Torrents\Milt Buckner - 2000 - Milt Buckner & His Alumni\Milt Buckner  - Milt Buckner & His Alumni.wav

     Пиковый уровень 99.8 %
     Скорость извлечения 4.1 X
     Качество диапазона 99.8 %
     CRC теста 60480E6B
     CRC копии 60480E6B
     Копирование... OK

Ошибок не произошло

 
AccurateRip: сводка
 
Трек  1  точность не определена (достоверность 1)  [5D3E8B58], AccurateRip вернул [4F83B18B]  (AR v2)
Трек  2  точность не определена (достоверность 1)  [9D69850C], AccurateRip вернул [3BC6E575]  (AR v2)
Трек  3  точность не определена (достоверность 1)  [976FD6C9], AccurateRip вернул [A5634099]  (AR v2)
Трек  4  точность не определена (достоверность 1)  [1C14AF5D], AccurateRip вернул [74EC23E4]  (AR v2)
Трек  5  точность не определена (достоверность 1)  [215D998E], AccurateRip вернул [E667EDEE]  (AR v2)
Трек  6  точность не определена (достоверность 1)  [16DFEC0F], AccurateRip вернул [C02FA543]  (AR v2)
Трек  7  точность не определена (достоверность 1)  [F8DA1ED2], AccurateRip вернул [F0A785A4]  (AR v2)
Трек  8  точность не определена (достоверность 1)  [957B6ECB], AccurateRip вернул [204409C0]  (AR v2)
Трек  9  точность не определена (достоверность 1)  [0DF5BA3D], AccurateRip вернул [9CCFD7D9]  (AR v2)
Трек 10  точность не определена (достоверность 1)  [2B13A9F6], AccurateRip вернул [E2BF95E4]  (AR v2)
Трек 11  точность не определена (достоверность 1)  [68C50F29], AccurateRip вернул [64371400]  (AR v2)
Трек 12  точность не определена (достоверность 1)  [0142C62A], AccurateRip вернул [0ADE446B]  (AR v2)
Трек 13  точность не определена (достоверность 1)  [78FD4C63], AccurateRip вернул [41378D27]  (AR v2)
 
Ни один трек не прошёл проверки на точность
В вашей базе может быть иной вариант штамповки диска

Конец отчёта

==== Контрольная сумма отчёта 5FF5F06F79A50F35E3A83D52503C3CC2884CBDF510D62AE595D659B2532D416D ====
Приватный:
Да (DHT отключён)
Размер:
402.90 Мб (422,474,133 байт) » файлов: 10
Участники:
3 раздают, 0 качают (3 участников всего)
Внешние участники:
--- [ Обновить ]
No seeders - write personal message to M0p94ok. Нет сидеров - пишите в личку M0p94ok.
22:15
111
Нет комментариев. Ваш будет первым!