Поиск

1976 (1988) George Benson - Breezin' {Warner Bros. 3111-2}

1976 (1988) George Benson - Breezin' {Warner Bros. 3111-2}
Страна-производитель диска (релиза):
Germany
Дата записи диска:
6-8 января 1976
Дата издания диска:
1976
Дата переиздания диска:
1988
Издатель (лейбл):
Номер по каталогу:
3111-2
Носитель:
CD
Битрейт аудио:
lossless
Аудиокодек:
FLAC (*.flac)
Тип рипа:
tracks+.cue
Время звучания:
38:55
Наличие сканов:
  • да
Релизёр (источник):
web

Треклист:

1. Breezin' - 5:40
2. This Masquerade - 8:03
3. Six To Four - 5:06
4. Affirmation - 7:01
5. So This Is Love? - 7:03
6. Lady - 5:49

Состав:
  • Stanley Banks Bass
  • George Benson Composer, Guitar, Vocals
  • Jorge Dalto Clavinet, Keyboards, Piano, Piano (Electric)
  • Ronnie Foster Composer, Keyboards, Mini Moog, Moog Synthesizer, Piano, Piano (Electric)
  • Tommy LiPuma Producer
  • Ralph MacDonald Percussion
  • Harvey Mason, Sr. Drums
  • David McLees Producer
  • Claus Ogerman Arranger, Conductor
  • Al Schmitt Engineer, Mixing, Producer
  • Phil Upchurch Bass, Composer, Guitar, Guitar (Rhythm)
  • Al Young Liner Notes

Recorded & Mixed at Capitol Records, Hollywood, on January 6, 7 & 8, 1976. Mastered at The Mastering Lab, Hollywood

Лог создания рипа
Exact Audio Copy V0.99 prebeta 5 from 4. May 2009

EAC extraction logfile from 18. June 2010, 22:09

George Benson / Breezin' [West German 'Target' Pressing]

Used drive  : PLEXTOR DVDR   PX-760A   Adapter: 1  ID: 1

Read mode               : Secure
Utilize accurate stream : Yes
Defeat audio cache      : Yes
Make use of C2 pointers : No

Read offset correction                      : 30
Overread into Lead-In and Lead-Out          : Yes
Fill up missing offset samples with silence : Yes
Delete leading and trailing silent blocks   : No
Null samples used in CRC calculations       : Yes
Used interface                              : Installed external ASPI interface
Gap handling                                : Appended to previous track

Used output format : Internal WAV Routines
Sample format      : 44.100 Hz; 16 Bit; Stereo

TOC of the extracted CD

     Track |   Start  |  Length  | Start sector | End sector
    ---------------------------------------------------------
        1  |  0:00.32 |  5:41.35 |        32    |    25641
        2  |  5:41.67 |  8:04.33 |     25642    |    61974
        3  | 13:46.25 |  5:11.02 |     61975    |    85301
        4  | 18:57.27 |  6:58.65 |     85302    |   116716
        5  | 25:56.17 |  7:04.08 |    116717    |   148524
        6  | 33:00.25 |  5:55.55 |    148525    |   175204

Track  1

     Filename C:\supang!\George Benson -1976- Breezin' {West German Target}\01. Breezin'.wav

     Pre-gap length  0:00:02.32

     Peak level 90.9 %
     Track quality 100.0 %
     Test CRC 5084C0DF
     Copy CRC 5084C0DF
     Accurately ripped (confidence 17)  [F3DAF659]
     Copy OK

Track  2

     Filename C:\supang!\George Benson -1976- Breezin' {West German Target}\02. This Masquerade.wav

     Pre-gap length  0:00:01.60

     Peak level 77.1 %
     Track quality 100.0 %
     Test CRC E1881A0E
     Copy CRC E1881A0E
     Accurately ripped (confidence 19)  [B631479A]
     Copy OK

Track  3

     Filename C:\supang!\George Benson -1976- Breezin' {West German Target}\03. Six to Four.wav

     Pre-gap length  0:00:01.51

     Peak level 77.6 %
     Track quality 100.0 %
     Test CRC 5F58BCB5
     Copy CRC 5F58BCB5
     Accurately ripped (confidence 18)  [5B0016BD]
     Copy OK

Track  4

     Filename C:\supang!\George Benson -1976- Breezin' {West German Target}\04. Affirmation.wav

     Pre-gap length  0:00:04.11

     Peak level 98.0 %
     Track quality 100.0 %
     Test CRC 1226C471
     Copy CRC 1226C471
     Accurately ripped (confidence 18)  [3D5B54AE]
     Copy OK

Track  5

     Filename C:\supang!\George Benson -1976- Breezin' {West German Target}\05. So This Is Love.wav

     Pre-gap length  0:00:05.48

     Peak level 89.8 %
     Track quality 100.0 %
     Test CRC 93C93326
     Copy CRC 93C93326
     Accurately ripped (confidence 18)  [D8D18885]
     Copy OK

Track  6

     Filename C:\supang!\George Benson -1976- Breezin' {West German Target}\06. Lady.wav

     Pre-gap length  0:00:02.16

     Peak level 89.7 %
     Track quality 100.0 %
     Test CRC CBBCDF4D
     Copy CRC CBBCDF4D
     Accurately ripped (confidence 17)  [989D8BC1]
     Copy OK

All tracks accurately ripped

No errors occurred

End of status report
Содержание индексной карты (.CUE)
REM GENRE "Smooth Jazz; Crossover Jazz"
REM DATE 1976
REM DISCID 53092006
REM COMMENT "Warner Bros. Records 3111-2 (256 199)"
PERFORMER "George Benson"
TITLE "Breezin' [West German 'Target' Pressing]"
FILE "01. Breezin'.wav" WAVE
  TRACK 01 AUDIO
    TITLE "Breezin'"
    PERFORMER "George Benson"
    PREGAP 00:00:32
    INDEX 01 00:00:00
  TRACK 02 AUDIO
    TITLE "This Masquerade"
    PERFORMER "George Benson"
    INDEX 00 05:39:50
FILE "02. This Masquerade.wav" WAVE
    INDEX 01 00:00:00
  TRACK 03 AUDIO
    TITLE "Six to Four"
    PERFORMER "George Benson"
    INDEX 00 08:02:57
FILE "03. Six to Four.wav" WAVE
    INDEX 01 00:00:00
  TRACK 04 AUDIO
    TITLE "Affirmation"
    PERFORMER "George Benson"
    INDEX 00 05:06:66
FILE "04. Affirmation.wav" WAVE
    INDEX 01 00:00:00
  TRACK 05 AUDIO
    TITLE "So This Is Love?"
    PERFORMER "George Benson"
    INDEX 00 06:53:17
FILE "05. So This Is Love.wav" WAVE
    INDEX 01 00:00:00
  TRACK 06 AUDIO
    TITLE "Lady"
    PERFORMER "George Benson"
    INDEX 00 07:01:67
FILE "06. Lady.wav" WAVE
    INDEX 01 00:00:00
Скриншот спектра частот
1976 (1988) George Benson - Breezin' {Warner Bros. 3111-2} 01976 (1988) George Benson - Breezin' {Warner Bros. 3111-2} 1
Приватный:
Нет (DHT включён)
Размер:
310.18 Мб (325,252,227 байт) » файлов: 18
Участники:
0 раздают, 0 качают (0 участников всего)
Внешние участники:
Нет внешних трекеров [ Обновить ]
12:03
38
RSS
Нет комментариев. Ваш будет первым!