Поиск

1975 Gary Bartz - The Shadow Do (2022) {Craft} [24-192]

1975 Gary Bartz - The Shadow Do (2022) {Craft} [24-192]
Стили:
Носитель:
WEB
Формат:
PCM
Тип рипа:
tracks
Контейнер:
FLAC (*.flac)
Количество каналов:
2.0
Разрядность/ЧД:
24/192
Битрейт аудио:
lossless
Наличие сканов:
только обложка

This album is available on our DC++ hub: dc.pro-jazz.com
Этот альбом доступен на нашем DC++ хабе: dc.pro-jazz.com

01 - Winding Roads 03:18
02 - Mother Nature 06:34
03 - Love Tones 05:15
04 - Gentle Smiles 04:23
05 - Make Me Feel Better 04:40
06 - Sea Gypsy 06:17
07 - For My Baby 04:58
08 - Incident 02:59

Состав:
  • Gary Bartz — Alto Saxophone, Soprano Saxophone, Synthesizer, Lead Vocals, Backing Vocals
  • Reggie Lucas — Guitar
  • Hubert Eaves, Larry Mizell — Piano, Clavinet, Synthesizer
  • Michael Henderson — Bass
  • Mtume — Congas, Percussion
  • Howard King — Drums, Synthesizer
  • Larry & Fonce Mizell — Backing Vocals
Лог проверки качества
foobar2000 1.4.3 / Dynamic Range Meter 1.1.1
log date: 2022-07-29 21:14:21
--------------------------------------------------------------------------------
Analyzed: Gary Bartz / The Shadow Do
--------------------------------------------------------------------------------
DR         Peak         RMS     Duration Track
--------------------------------------------------------------------------------
DR13      -2.45 dB   -17.04 dB      3:18 01-Winding Roads
DR13      -0.92 dB   -16.03 dB      6:35 02-Mother Nature
DR12      -2.99 dB   -17.52 dB      5:16 03-Love Tones
DR12      -3.02 dB   -17.66 dB      4:24 04-Gentle Smiles
DR13      -3.33 dB   -20.97 dB      4:41 05-Make Me Feel Better
DR13      -1.52 dB   -16.98 dB      6:17 06-Sea Gypsy
DR12      -2.62 dB   -16.19 dB      4:59 07-For My Baby
DR12      -3.18 dB   -18.05 dB      2:59 08-Incident
--------------------------------------------------------------------------------
Number of tracks:  8
Official DR value: DR13
Samplerate:        192000 Hz
Channels:          2
Bits per sample:   24
Bitrate:           5607 kbps
Codec:             FLAC
================================================================================
Скачивание доступно после регистрации!!
Приватный:
Нет (DHT включён)
Размер:
1.51 Гб (1,623,364,379 байт) » файлов: 12
Участники:
0 раздают, 0 качают (0 участников всего)
Внешние участники:
2 раздают, 1 качают (3 участников всего) [ Обновить ]
23:19
292
Нет комментариев. Ваш будет первым!