Поиск

1974 McCoy Tyner - Atlantis (1996) {Milestone} [CD]

1974 McCoy Tyner - Atlantis (1996) {Milestone} [CD]
Стили:
Издатель (лейбл):
Треклист:

01. Atlantis (18:01)
02. In A Sentimental Mood (5:41)
03. Makin' Out (13:06)
04. My One And Only Love (10:01)
05. Pursuit (9:23)
06. Love Samba (15:56)

Состав:

Rec.: Keystone Korner, San Francisco, August 31 and September 1, 1974.

Доп. инфо:

Год издания диска: 1996
Лейбл: Milestone
Номер по каталогу: MCD-55002-2
Аудио кодек: FLAC (*.flac)
Тип рипа: image+.cue
Битрейт аудио: lossless
Продолжительность: 72:09
Риппер: pcharlie46
Сканы: 300 dpi

Лог создания рипа
Exact Audio Copy V1.0 beta 1 from 15. November 2010
EAC extraction logfile from 5. January 2011, 16:32
McCoy Tyner / Atlantis
Used drive  : MATSHITADVD-RAM UJ870BJ   Adapter: 0  ID: 1
Read mode               : Secure
Utilize accurate stream : Yes
Defeat audio cache      : Yes
Make use of C2 pointers : No
Read offset correction                      : 102
Overread into Lead-In and Lead-Out          : No
Fill up missing offset samples with silence : Yes
Delete leading and trailing silent blocks   : No
Null samples used in CRC calculations       : No
Used interface                              : Native Win32 interface for Win NT & 2000
Used output format              : User Defined Encoder
Selected bitrate                : 1024 kBit/s
Quality                         : High
Add ID3 tag                     : Yes
Command line compressor         : C:\Program Files\Exact Audio Copy\FLAC\FLAC.EXE
Additional command line options : -6 -V -T "ARTIST=%a" -T "TITLE=%t" -T "ALBUM=%g" -T "DATE=%y" -T "TRACKNUMBER=%n" -T "GENRE=%m" -T "COMMENT=%e" %j--picture="%i"%j %s -o %d
TOC of the extracted CD
     Track |   Start  |  Length  | Start sector | End sector
    ---------------------------------------------------------
        1  |  0:00.00 | 18:01.35 |         0    |    81109
        2  | 18:01.35 |  5:41.02 |     81110    |   106686
        3  | 23:42.37 | 13:06.05 |    106687    |   165641
        4  | 36:48.42 | 10:01.20 |    165642    |   210736
        5  | 46:49.62 |  9:22.43 |    210737    |   252929
        6  | 56:12.30 | 15:56.27 |    252930    |   324656
Range status and errors
Selected range
     Filename C:\Lossless\McCoy Tyner - Atlantis (1975) (flac)\McCoy Tyner - Atlantis.wav
     Peak level 100.0 %
     Extraction speed 0.2 X
     Range quality 100.0 %
     Copy CRC 2A6633A5
     Copy OK
No errors occurred
AccurateRip summary
Track  1  accurately ripped (confidence 2)  [33869379]
Track  2  accurately ripped (confidence 2)  [2E95DB8C]
Track  3  accurately ripped (confidence 2)  [71DF6049]
Track  4  accurately ripped (confidence 2)  [A10F6028]
Track  5  accurately ripped (confidence 2)  [2686DFE4]
Track  6  accurately ripped (confidence 2)  [D851CCB5]
All tracks accurately ripped
End of status report
==== Log checksum 5C1F663FE2135715B8E420B29A7F0FAC0C7D9C1A0870CF5129B17EEBF79FB046 ====
По всем вопросам пишите личное сообщение пользователю M0p94ok.
21:50
303
Нет комментариев. Ваш будет первым!