Поиск

1974 McCoy Tyner - Atlantis (1989) {Milestone} [2CD]

1974 McCoy Tyner - Atlantis (1989) {Milestone} [2CD]
Стили:
Издатель (лейбл):
Треклист:
Страна-производитель диска (релиза): Japan
Год издания: 1989
Издатель (лейбл): Milestone/Victor Japan
Номер по каталогу: VDJ-25031~32
Аудиокодек: FLAC (*.flac)
Тип рипа: tracks+.cue
Битрейт аудио: lossless
Продолжительность: 36:47/42:58
Источник (релизер): ruskaval
Наличие сканов в содержимом раздачи: да
CD 1
01. Atlantis (18:04)
02. In A Sentimental Mood (5:39)
03. Makin' Out (13:05)
CD 2
01. My One And Only Love (10:03)
02. Pursuit (9:23)
03. Love Samba (15:58)
04. Naima (7:35)
 
 
CD 1
 
 
Лог создания рипа
Exact Audio Copy V0.99 prebeta 4 from 23. January 2008
EAC extraction logfile from 26. June 2009, 7:03
McCoy Tyner / Atlantis (Disc 1)
Used drive  : _NEC    DVD_RW ND-3520A   Adapter: 1  ID: 0
Read mode               : Secure
Utilize accurate stream : Yes
Defeat audio cache      : Yes
Make use of C2 pointers : No
Read offset correction                      : 48
Overread into Lead-In and Lead-Out          : No
Fill up missing offset samples with silence : Yes
Delete leading and trailing silent blocks   : No
Null samples used in CRC calculations       : Yes
Used interface                              : Installed external ASPI interface
Gap handling                                : Appended to previous track
Used output format              : User Defined Encoder
Selected bitrate                : 1024 kBit/s
Quality                         : High
Add ID3 tag                     : No
Command line compressor         : C:\Program Files\FLAC\flac.exe
Additional command line options : -8 -V -T "ARTIST=%a" -T "TITLE=%t" -T "ALBUM=%g" -T "DATE=%y" -T "TRACKNUMBER=%n" -T "GENRE=%m" -T "COMMENT=EAC FLAC -8" %s
TOC of the extracted CD
     Track |   Start  |  Length  | Start sector | End sector
    ---------------------------------------------------------
        1  |  0:00.37 | 18:03.58 |        37    |    81319
        2  | 18:04.20 |  5:38.42 |     81320    |   106711
        3  | 23:42.62 | 13:04.40 |    106712    |   165551
Track  1
     Filename C:\Documents and Settings\All Users\Documents\Uploads\Ex\McCoy Tyner - Atlantis (1974) [FLAC] {2xCD Japanese Issue}\Disc 1\01 - Atlantis.wav
     Pre-gap length  0:00:02.49
     Peak level 96.6 %
     Track quality 100.0 %
     Test CRC 82516AB1
     Copy CRC 82516AB1
     Track not present in AccurateRip database
     Copy OK
Track  2
     Filename C:\Documents and Settings\All Users\Documents\Uploads\Ex\McCoy Tyner - Atlantis (1974) [FLAC] {2xCD Japanese Issue}\Disc 1\02 - In A Sentimental Mood.wav
     Pre-gap length  0:00:04.33
     Peak level 76.8 %
     Track quality 100.0 %
     Test CRC 31D87B50
     Copy CRC 31D87B50
     Track not present in AccurateRip database
     Copy OK
Track  3
     Filename C:\Documents and Settings\All Users\Documents\Uploads\Ex\McCoy Tyner - Atlantis (1974) [FLAC] {2xCD Japanese Issue}\Disc 1\03 - Makin' Out.wav
     Pre-gap length  0:00:03.28
     Peak level 87.0 %
     Track quality 100.0 %
     Test CRC 73AA0F0C
     Copy CRC 73AA0F0C
     Track not present in AccurateRip database
     Copy OK
None of the tracks are present in the AccurateRip database
No errors occurred
End of status report
 
 
Содержание индексной карты (.CUE)
REM GENRE Jazz
REM DATE 1974
REM DISCID 1C089F03
REM COMMENT "ExactAudioCopy v0.99pb4"
PERFORMER "McCoy Tyner"
TITLE "Atlantis (Disc 1)"
FILE "01 - Atlantis.wav" WAVE
  TRACK 01 AUDIO
    TITLE "Atlantis"
    PERFORMER "McCoy Tyner"
    PREGAP 00:00:37
    INDEX 01 00:00:00
  TRACK 02 AUDIO
    TITLE "In A Sentimental Mood"
    PERFORMER "McCoy Tyner"
    INDEX 00 17:59:33
FILE "02 - In A Sentimental Mood.wav" WAVE
    INDEX 01 00:00:00
  TRACK 03 AUDIO
    TITLE "Makin' Out"
    PERFORMER "McCoy Tyner"
    INDEX 00 05:35:21
FILE "03 - Makin' Out.wav" WAVE
    INDEX 01 00:00:00
 
 
CD 2
 
 
Лог создания рипа
Exact Audio Copy V0.99 prebeta 4 from 23. January 2008
EAC extraction logfile from 26. June 2009, 7:23
McCoy Tyner / Atlantis (Disc 2)
Used drive  : _NEC    DVD_RW ND-3520A   Adapter: 1  ID: 0
Read mode               : Secure
Utilize accurate stream : Yes
Defeat audio cache      : Yes
Make use of C2 pointers : No
Read offset correction                      : 48
Overread into Lead-In and Lead-Out          : No
Fill up missing offset samples with silence : Yes
Delete leading and trailing silent blocks   : No
Null samples used in CRC calculations       : Yes
Used interface                              : Installed external ASPI interface
Gap handling                                : Appended to previous track
Used output format              : User Defined Encoder
Selected bitrate                : 1024 kBit/s
Quality                         : High
Add ID3 tag                     : No
Command line compressor         : C:\Program Files\FLAC\flac.exe
Additional command line options : -8 -V -T "ARTIST=%a" -T "TITLE=%t" -T "ALBUM=%g" -T "DATE=%y" -T "TRACKNUMBER=%n" -T "GENRE=%m" -T "COMMENT=EAC FLAC -8" %s
TOC of the extracted CD
     Track |   Start  |  Length  | Start sector | End sector
    ---------------------------------------------------------
        1  |  0:00.37 | 10:02.43 |        37    |    45229
        2  | 10:03.05 |  9:22.52 |     45230    |    87431
        3  | 19:25.57 | 15:57.63 |     87432    |   159269
        4  | 35:23.45 |  7:34.42 |    159270    |   193361
Track  1
     Filename C:\Documents and Settings\All Users\Documents\Uploads\Ex\McCoy Tyner - Atlantis (1974) [FLAC] {2xCD Japanese Issue}\Disc 2\01 - My One And Only Love.wav
     Pre-gap length  0:00:02.49
     Peak level 75.1 %
     Track quality 100.0 %
     Test CRC 8FD93B5C
     Copy CRC 8FD93B5C
     Track not present in AccurateRip database
     Copy OK
Track  2
     Filename C:\Documents and Settings\All Users\Documents\Uploads\Ex\McCoy Tyner - Atlantis (1974) [FLAC] {2xCD Japanese Issue}\Disc 2\02 - Pursuit.wav
     Pre-gap length  0:00:03.46
     Peak level 87.9 %
     Track quality 100.0 %
     Test CRC FB6447E5
     Copy CRC FB6447E5
     Track not present in AccurateRip database
     Copy OK
Track  3
     Filename C:\Documents and Settings\All Users\Documents\Uploads\Ex\McCoy Tyner - Atlantis (1974) [FLAC] {2xCD Japanese Issue}\Disc 2\03 - Love Samba.wav
     Pre-gap length  0:00:03.38
     Peak level 97.1 %
     Track quality 99.9 %
     Test CRC F8D912B0
     Copy CRC F8D912B0
     Track not present in AccurateRip database
     Copy OK
Track  4
     Filename C:\Documents and Settings\All Users\Documents\Uploads\Ex\McCoy Tyner - Atlantis (1974) [FLAC] {2xCD Japanese Issue}\Disc 2\04 - Naima.wav
     Pre-gap length  0:00:01.05
     Peak level 41.3 %
     Track quality 99.9 %
     Test CRC 06B3B4C4
     Copy CRC 06B3B4C4
     Track not present in AccurateRip database
     Copy OK
None of the tracks are present in the AccurateRip database
No errors occurred
End of status report
 
 
Содержание индексной карты (.CUE)
REM GENRE Jazz
REM DATE 1974
REM DISCID 260A1204
REM COMMENT "ExactAudioCopy v0.99pb4"
PERFORMER "McCoy Tyner"
TITLE "Atlantis (Disc 2)"
FILE "01 - My One And Only Love.wav" WAVE
  TRACK 01 AUDIO
    TITLE "My One And Only Love"
    PERFORMER "McCoy Tyner"
    PREGAP 00:00:37
    INDEX 01 00:00:00
  TRACK 02 AUDIO
    TITLE "Pursuit"
    PERFORMER "McCoy Tyner"
    INDEX 00 09:59:08
FILE "02 - Pursuit.wav" WAVE
    INDEX 01 00:00:00
  TRACK 03 AUDIO
    TITLE "Love Samba"
    PERFORMER "McCoy Tyner"
    INDEX 00 09:19:23
FILE "03 - Love Samba.wav" WAVE
    INDEX 01 00:00:00
  TRACK 04 AUDIO
    TITLE "Naima"
    PERFORMER "McCoy Tyner"
    INDEX 00 15:56:59
FILE "04 - Naima.wav" WAVE
    INDEX 01 00:00:00
Состав:

Rec.: Keystone Korner, San Francisco, CA, August 31 and September 1, 1974.

По всем вопросам пишите личное сообщение пользователю M0p94ok.
08:53
263
Нет комментариев. Ваш будет первым!