Вы используете незарегистрированную версию компонента "Вкладки"!

Поиск

1973 Ron Carter - Blues Farm (2017) {King} [24-192]

1973 Ron Carter - Blues Farm (2017) {King} [24-192]
Место записи:
Van Gelder Recording Studio, Englewood Cliffs, New Jersey
Дата издания диска:
10 января 1973
Издатель (лейбл):
Битрейт аудио:
lossless
Доп. инфо:

Формат записи/Источник записи: [TR24][OF]
Издание: Remastered
Год издания/переиздания диска: 1973/2017
Издатель (лейбл): King Record Co
Продолжительность: 00:36:42
Наличие сканов в содержимом раздачи: Нет

Контейнер: FLAC (*.flac)
Тип рипа: tracks
Разрядность: 24/192
Количество каналов: 2.0

Источник (релизер): King Jazz & Classics

Лог проверки качества
foobar2000 1.4.3 / Dynamic Range Meter 1.1.1
log date: 2020-02-18 17:55:28

--------------------------------------------------------------------------------
Analyzed: Ron Carter / Blues Farm
--------------------------------------------------------------------------------

DR         Peak         RMS     Duration Track
--------------------------------------------------------------------------------
DR10      -0.01 dB   -12.61 dB      8:07 01-Blues Farm
DR14      -0.51 dB   -20.89 dB      5:43 02-A Small Ballad
DR13      -0.01 dB   -16.28 dB      5:35 03-Django
DR14      -0.01 dB   -16.64 dB      8:15 04-A Hymn For Him
DR12      -0.01 dB   -14.41 dB      2:54 05-Two-Beat Johnson
DR12      -0.01 dB   -13.57 dB      6:12 06-R2, M1
--------------------------------------------------------------------------------

Number of tracks:  6
Official DR value: DR12

Samplerate:        192000 Hz
Channels:          2
Bits per sample:   24
Bitrate:           5424 kbps
Codec:             FLAC
================================================================================
Any questions - support@pro-jazz.com. Есть вопросы - support@pro-jazz.com
16:59
323
Нет комментариев. Ваш будет первым!