Вы используете незарегистрированную версию компонента "Вкладки"!

Поиск

1973 Illinois Jacquet - The Man I Love (2007) {Black & Blue BB 865.2} [CD]

1973 Illinois Jacquet - The Man I Love (2007) {Black & Blue BB 865.2} [CD]
Стили:
Дата записи диска:
15-16 января 1973
Место записи:
Paris, France
Дата переиздания диска:
2007
Издатель (лейбл):
Номер по каталогу:
BB 865.2
Носитель:
CD
Тип рипа:
image
Аудиокодек:
FLAC (*.flac)
Битрейт аудио:
lossless
Время звучания:
00:58:59
Страна-производитель диска (релиза):
France
Релизёр (источник):
Vic0525
Лог создания рипа
Exact Audio Copy V0.99 prebeta 5 from 4. May 2009

Отчёт EAC об извлечении, выполненном 12. октября 2009, 14:48

Illinois Jacquet / The Man I Love

Дисковод: ASUS DVD-E616P3 Adapter: 3 ID: 0

Режим чтения : Достоверность
Использование точного потока : Да
Отключение кэша аудио : Да
Использование указателей C2 : Нет

Коррекция смещения при чтении : 738
Способность читать области Lead-in и Lead-out : Нет
Заполнение пропущенных сэмплов тишиной : Да
Удаление блоков с тишиной в начале и конце : Нет
При вычислениях CRC использовались нулевые сэмплы : Да
Интерфейс : Встроенный Win32-интерфейс для Win NT/2000

Выходной формат : Пользовательский кодировщик
Выбранный битрейт : 1024 kBit/s
Качество : Высокий
Добавление ID3-тэга : Нет
Утилита сжатия : C:\Program Files\Exact Audio Copy\FLAC\FLAC.EXE
Дополнительные параметры : -6 -V -T "ARTIST=%a" -T "TITLE=%t" -T "ALBUM=%g" -T "DATE=%y" -T "TRACKNUMBER=%n" -T "GENRE=%m" -T "COMMENT=%e" %s -o %d

TOC извлечённого CD

Трек | Старт | Длительность | Начальный сектор | Конечный сектор
---------------------------------------------------------------------
1 | 0:00.00 | 8:20.33 | 0 | 37532
2 | 8:20.33 | 6:18.15 | 37533 | 65897
3 | 14:38.48 | 5:52.03 | 65898 | 92300
4 | 20:30.51 | 4:42.20 | 92301 | 113470
5 | 25:12.71 | 5:12.07 | 113471 | 136877
6 | 30:25.03 | 9:36.38 | 136878 | 180115
7 | 40:01.41 | 6:10.55 | 180116 | 207920
8 | 46:12.21 | 4:12.60 | 207921 | 226880
9 | 50:25.06 | 8:34.07 | 226881 | 265437

Характеристики диапазона извлечения и сообщения об ошибках

Выбранный диапазон

Имя файла C:\Program Files\Exact Audio Copy\Illinois Jacquet - The Man I Love.wav

Пиковый уровень 92.3 %
Качество диапазона 99.9 %
CRC теста 092E2AE8
CRC копии 092E2AE8
Копирование... OK

Ошибок не произошло

AccurateRip: сводка

Трек 1 нет в базе данных
Трек 2 нет в базе данных
Трек 3 нет в базе данных
Трек 4 нет в базе данных
Трек 5 нет в базе данных
Трек 6 нет в базе данных
Трек 7 нет в базе данных
Трек 8 нет в базе данных
Трек 9 нет в базе данных

Ни одного трека нет в базе AccurateRip

Конец отчёта
Лог проверки качества
AUDIOCHECKER v2.0 beta (build 457) - by Dester - opdester@freemail.hu
~~~~~~~~~~~~~~~~~~~~~~~~~~~~~~~~~~
-=== НЕ РЕДАКТИРУЙТЕ ЭТОТ ФАЙЛ! ===-

Путь: ...\Illinois Jacquet - The Man I Love

1 -=- Illinois Jacquet - The Man I Love.flac -=- CDDA (100%)

195043204
Any questions - support@pro-jazz.com. Есть вопросы - support@pro-jazz.com
01:23
229
Нет комментариев. Ваш будет первым!