Поиск

1973 Candy Johnson & Milt Buckner Trio - Candy's Mood (1999) {Black & Blue BB 884.2} [CD]

1973 Candy Johnson & Milt Buckner Trio - Candy's Mood (1999) {Black & Blue BB 884.2}  [CD]
Стили:
Издатель (лейбл):
Номер по каталогу:
BB 884.2
Треклист:

01. Candy's Mood (3:23)
02. Frankie and Johnny (5:57)
03. Freight Train (4:44)
04. Manhattan (4:30)
05. The Girl from Ipanema (6:55)
06. Jersey Bounce (5:10)
07. Cottontail (5:36)
08. Until the Real Thing Comes Along (5:18)
09. C.J. Blues (4:50)
10. Tuxedo Junction (5:10)
11. Candy's Mood (alternate take) (3:22)
12. Jersey Bounce (alternate take) (6:08)
13. Freight Train (alternate take) (4:41)

Recorded in Paris in on July 30 - August 1, 1973.

Состав:

Candy Johnson — tenor saxophone
Clarence "Gatemouth" Brown — guitar
Milt Buckner — organ
Michael Silva — drums

Доп. инфо:

Носитель: CD Страна-производитель диска (релиза): Франция Год издания: 1999 Издатель (лейбл): Black & Blue Номер по каталогу: BB 884.2 Аудиокодек: FLAC (*.flac) Тип рипа: tracks+.cue Битрейт аудио: lossless Продолжительность: 65:44 Источник (релизер): stoichie (what) Наличие сканов в содержимом раздачи: нет

Лог создания рипа
Exact Audio Copy V1.0 beta 6 from 9. April 2015

EAC extraction logfile from 7. November 2015, 15:46

Candy Johnson / Candy's Mood

Used drive  : MATSHITADVD+-RW UJ8FB   Adapter: 1  ID: 0

Read mode               : Secure
Utilize accurate stream : Yes
Defeat audio cache      : Yes
Make use of C2 pointers : No

Read offset correction                      : 6
Overread into Lead-In and Lead-Out          : No
Fill up missing offset samples with silence : Yes
Delete leading and trailing silent blocks   : No
Null samples used in CRC calculations       : Yes
Used interface                              : Native Win32 interface for Win NT & 2000
Gap handling                                : Appended to previous track

Used output format              : User Defined Encoder
Selected bitrate                : 1024 kBit/s
Quality                         : High
Add ID3 tag                     : No
Command line compressor         : C:\Program Files\Flac\flac.exe
Additional command line options : -8 -V -T "ARTIST=%artist%" -T "TITLE=%title%" -T "ALBUM=%albumtitle%" -T "DATE=%year%" -T "TRACKNUMBER=%tracknr%" -T "GENRE=%genre%" -T "PERFORMER=%albuminterpret%" -T "COMPOSER=%composer%" %haslyrics%--tag-from-file=LYRICS="%lyricsfile%"%haslyrics% -T "ALBUMARTIST=%albumartist%" -T "DISCNUMBER=%cdnumber%" -T "TOTALDISCS=%totalcds%" -T "TOTALTRACKS=%numtracks%" -T "COMMENT=%comment%" %source% -o %dest%

TOC of the extracted CD

     Track |   Start  |  Length  | Start sector | End sector
    ---------------------------------------------------------
        1  |  0:00.00 |  3:23.20 |         0    |    15244
        2  |  3:23.20 |  5:57.30 |     15245    |    42049
        3  |  9:20.50 |  4:43.60 |     42050    |    63334
        4  | 14:04.35 |  4:30.20 |     63335    |    83604
        5  | 18:34.55 |  6:55.05 |     83605    |   114734
        6  | 25:29.60 |  5:10.05 |    114735    |   137989
        7  | 30:39.65 |  5:36.10 |    137990    |   163199
        8  | 36:16.00 |  5:18.10 |    163200    |   187059
        9  | 41:34.10 |  4:50.20 |    187060    |   208829
       10  | 46:24.30 |  5:09.60 |    208830    |   232064
       11  | 51:34.15 |  3:22.35 |    232065    |   247249
       12  | 54:56.50 |  6:07.60 |    247250    |   274834
       13  | 61:04.35 |  4:41.30 |    274835    |   295939

Track  1

     Filename C:\EAC Rips\Candy Johnson - Candy's Mood (1973)\01 - Candy's Mood.wav

     Pre-gap length  0:00:02.00

     Peak level 99.1 %
     Extraction speed 2.9 X
     Track quality 100.0 %
     Test CRC 30BB6FA4
     Copy CRC 30BB6FA4
     Track not present in AccurateRip database
     Copy OK

Track  2

     Filename C:\EAC Rips\Candy Johnson - Candy's Mood (1973)\02 - Frankie And Johnny.wav

     Pre-gap length  0:00:03.00

     Peak level 99.4 %
     Extraction speed 3.4 X
     Track quality 100.0 %
     Test CRC E0B81CD9
     Copy CRC E0B81CD9
     Track not present in AccurateRip database
     Copy OK

Track  3

     Filename C:\EAC Rips\Candy Johnson - Candy's Mood (1973)\03 - Freight Train.wav

     Pre-gap length  0:00:03.00

     Peak level 99.8 %
     Extraction speed 3.7 X
     Track quality 100.0 %
     Test CRC C0AD9F5E
     Copy CRC C0AD9F5E
     Track not present in AccurateRip database
     Copy OK

Track  4

     Filename C:\EAC Rips\Candy Johnson - Candy's Mood (1973)\04 - Manhattan.wav

     Pre-gap length  0:00:03.00

     Peak level 99.1 %
     Extraction speed 3.3 X
     Track quality 99.9 %
     Test CRC 4EA4C320
     Copy CRC 4EA4C320
     Track not present in AccurateRip database
     Copy OK

Track  5

     Filename C:\EAC Rips\Candy Johnson - Candy's Mood (1973)\05 - The Girl From Ipanema.wav

     Pre-gap length  0:00:03.00

     Peak level 99.3 %
     Extraction speed 4.5 X
     Track quality 100.0 %
     Test CRC 8D3AEEB9
     Copy CRC 8D3AEEB9
     Track not present in AccurateRip database
     Copy OK

Track  6

     Filename C:\EAC Rips\Candy Johnson - Candy's Mood (1973)\06 - Jersey Bounce.wav

     Pre-gap length  0:00:03.00

     Peak level 100.0 %
     Extraction speed 4.0 X
     Track quality 99.9 %
     Test CRC 22674C59
     Copy CRC 22674C59
     Track not present in AccurateRip database
     Copy OK

Track  7

     Filename C:\EAC Rips\Candy Johnson - Candy's Mood (1973)\07 - Cottontail.wav

     Pre-gap length  0:00:03.00

     Peak level 100.0 %
     Extraction speed 5.0 X
     Track quality 100.0 %
     Test CRC EFE9E61F
     Copy CRC EFE9E61F
     Track not present in AccurateRip database
     Copy OK

Track  8

     Filename C:\EAC Rips\Candy Johnson - Candy's Mood (1973)\08 - Until The Real Thing Comes Along.wav

     Pre-gap length  0:00:03.00

     Peak level 100.0 %
     Extraction speed 5.2 X
     Track quality 100.0 %
     Test CRC 41F1F5AC
     Copy CRC 41F1F5AC
     Track not present in AccurateRip database
     Copy OK

Track  9

     Filename C:\EAC Rips\Candy Johnson - Candy's Mood (1973)\09 - C.J. Blues.wav

     Pre-gap length  0:00:03.00

     Peak level 99.1 %
     Extraction speed 5.4 X
     Track quality 100.0 %
     Test CRC 3187FFBA
     Copy CRC 3187FFBA
     Track not present in AccurateRip database
     Copy OK

Track 10

     Filename C:\EAC Rips\Candy Johnson - Candy's Mood (1973)\10 - Tuxedo Junction.wav

     Pre-gap length  0:00:03.00

     Peak level 99.7 %
     Extraction speed 5.6 X
     Track quality 100.0 %
     Test CRC F4D88285
     Copy CRC F4D88285
     Track not present in AccurateRip database
     Copy OK

Track 11

     Filename C:\EAC Rips\Candy Johnson - Candy's Mood (1973)\11 - Candy's Mood (Alt. take).wav

     Pre-gap length  0:00:03.00

     Peak level 100.0 %
     Extraction speed 5.3 X
     Track quality 100.0 %
     Test CRC C3E14F0B
     Copy CRC C3E14F0B
     Track not present in AccurateRip database
     Copy OK

Track 12

     Filename C:\EAC Rips\Candy Johnson - Candy's Mood (1973)\12 - Jersey Bounce (Alt. take).wav

     Pre-gap length  0:00:03.00

     Peak level 99.4 %
     Extraction speed 6.0 X
     Track quality 100.0 %
     Test CRC 5A1605FB
     Copy CRC 5A1605FB
     Track not present in AccurateRip database
     Copy OK

Track 13

     Filename C:\EAC Rips\Candy Johnson - Candy's Mood (1973)\13 - Freight Train (Alt. take).wav

     Pre-gap length  0:00:03.00

     Peak level 99.1 %
     Extraction speed 6.1 X
     Track quality 100.0 %
     Test CRC 44F51840
     Copy CRC 44F51840
     Track not present in AccurateRip database
     Copy OK

None of the tracks are present in the AccurateRip database

No errors occurred

End of status report

---- CUETools DB Plugin V2.1.6

[CTDB TOCID: 9oizqm53yeGIsaXvEtfM9YHLCks-] found
Submit result: 9oizqm53yeGIsaXvEtfM9YHLCks- has been confirmed
Track | CTDB Status
  1   | (1/1) Accurately ripped
  2   | (1/1) Accurately ripped
  3   | (1/1) Accurately ripped
  4   | (1/1) Accurately ripped
  5   | (1/1) Accurately ripped
  6   | (1/1) Accurately ripped
  7   | (1/1) Accurately ripped
  8   | (1/1) Accurately ripped
  9   | (1/1) Accurately ripped
 10   | (1/1) Accurately ripped
 11   | (1/1) Accurately ripped
 12   | (1/1) Accurately ripped
 13   | (1/1) Accurately ripped

==== Log checksum CF734D0C95498246F775CEF46986B28830814FCCE261864D9E61609D1D6F0185 ====
Содержание индексной карты (.CUE)
REM GENRE Jazz
REM DATE 1973
REM DISCID C40F690D
REM COMMENT "ExactAudioCopy v1.0b6"
PERFORMER "Candy Johnson"
TITLE "Candy's Mood"
FILE "01 - Candy's Mood.wav" WAVE
  TRACK 01 AUDIO
    TITLE "Candy's Mood"
    PERFORMER "Candy Johnson"
    INDEX 01 00:00:00
  TRACK 02 AUDIO
    TITLE "Frankie and Johnny"
    PERFORMER "Candy Johnson"
    INDEX 00 03:20:20
FILE "02 - Frankie and Johnny.wav" WAVE
    INDEX 01 00:00:00
  TRACK 03 AUDIO
    TITLE "Freight Train"
    PERFORMER "Candy Johnson"
    INDEX 00 05:54:30
FILE "03 - Freight Train.wav" WAVE
    INDEX 01 00:00:00
  TRACK 04 AUDIO
    TITLE "Manhattan"
    PERFORMER "Candy Johnson"
    INDEX 00 04:40:60
FILE "04 - Manhattan.wav" WAVE
    INDEX 01 00:00:00
  TRACK 05 AUDIO
    TITLE "The Girl from Ipanema"
    PERFORMER "Candy Johnson"
    INDEX 00 04:27:20
FILE "05 - The Girl from Ipanema.wav" WAVE
    INDEX 01 00:00:00
  TRACK 06 AUDIO
    TITLE "Jersey Bounce"
    PERFORMER "Candy Johnson"
    INDEX 00 06:52:05
FILE "06 - Jersey Bounce.wav" WAVE
    INDEX 01 00:00:00
  TRACK 07 AUDIO
    TITLE "Cottontail"
    PERFORMER "Candy Johnson"
    INDEX 00 05:07:05
FILE "07 - Cottontail.wav" WAVE
    INDEX 01 00:00:00
  TRACK 08 AUDIO
    TITLE "Until the Real Thing Comes Along"
    PERFORMER "Candy Johnson"
    INDEX 00 05:33:10
FILE "08 - Until the Real Thing Comes Along.wav" WAVE
    INDEX 01 00:00:00
  TRACK 09 AUDIO
    TITLE "C.J. Blues"
    PERFORMER "Candy Johnson"
    INDEX 00 05:15:10
FILE "09 - C.J. Blues.wav" WAVE
    INDEX 01 00:00:00
  TRACK 10 AUDIO
    TITLE "Tuxedo Junction"
    PERFORMER "Candy Johnson"
    INDEX 00 04:47:20
FILE "10 - Tuxedo Junction.wav" WAVE
    INDEX 01 00:00:00
  TRACK 11 AUDIO
    TITLE "Candy's Mood (alternate take)"
    PERFORMER "Candy Johnson"
    INDEX 00 05:06:60
FILE "11 - Candy's Mood (alternate take).wav" WAVE
    INDEX 01 00:00:00
  TRACK 12 AUDIO
    TITLE "Jersey Bounce (alternate take)"
    PERFORMER "Candy Johnson"
    INDEX 00 03:19:35
FILE "12 - Jersey Bounce (alternate take).wav" WAVE
    INDEX 01 00:00:00
  TRACK 13 AUDIO
    TITLE "Freight Train (alternate take)"
    PERFORMER "Candy Johnson"
    INDEX 00 06:04:60
FILE "13 - Freight Train (alternate take).wav" WAVE
    INDEX 01 00:00:00
Лог проверки качества
[CUETools log; Date: 17.11.2015 2:34:19; Version: 2.1.5]
[CTDB TOCID: 9oizqm53yeGIsaXvEtfM9YHLCks-] found.
Track | CTDB Status
  1   | (2/2) Accurately ripped
  2   | (2/2) Accurately ripped
  3   | (2/2) Accurately ripped
  4   | (2/2) Accurately ripped
  5   | (2/2) Accurately ripped
  6   | (2/2) Accurately ripped
  7   | (2/2) Accurately ripped
  8   | (2/2) Accurately ripped
  9   | (2/2) Accurately ripped
 10   | (2/2) Accurately ripped
 11   | (2/2) Accurately ripped
 12   | (2/2) Accurately ripped
 13   | (2/2) Accurately ripped
[AccurateRip ID: 001f86dc-013d507c-c40f690d] disk not present in database.

Track Peak [ CRC32  ] [W/O NULL] [  LOG   ]
 --  100,0 [14120378] [9F9F2B0C]
 01   99,1 [30BB6FA4] [7004F89B]   CRC32
 02   99,4 [E0B81CD9] [4B1FB37D]   CRC32
 03   99,8 [C0AD9F5E] [9772D9A6]   CRC32
 04   99,1 [4EA4C320] [D5A04142]   CRC32
 05   99,3 [8D3AEEB9] [FD493668]   CRC32
 06  100,0 [22674C59] [F4252C20]   CRC32
 07  100,0 [EFE9E61F] [A0863AA2]   CRC32
 08  100,0 [41F1F5AC] [C49ACDC8]   CRC32
 09   99,1 [3187FFBA] [F11C9AFC]   CRC32
 10   99,7 [F4D88285] [FF4736D8]   CRC32
 11  100,0 [C3E14F0B] [40B196C6]   CRC32
 12   99,4 [5A1605FB] [197468AF]   CRC32
 13   99,1 [44F51840] [61409C15]   CRC32
По всем вопросам пишите личное сообщение пользователю M0p94ok.
17:24
531
Нет комментариев. Ваш будет первым!