Вы используете незарегистрированную версию компонента "Вкладки"!

Поиск

1972 Hubert Laws - Morning Star (2017) {King} [24-192]

1972 Hubert Laws - Morning Star (2017) {King} [24-192]
Дата записи диска:
сентябрь - октябрь 1972
Место записи:
Van Gelder Recording Studio, Englewood Cliffs, New Jersey
Издатель (лейбл):
Доп. инфо:

Формат записи/Источник записи: [TR24][OF]
Издание: Remastered
Год издания/переиздания диска: 1972/2017
Продолжительность: 00:35:49
Наличие сканов в содержимом раздачи: Нет

Контейнер: FLAC (*.flac)
Тип рипа: tracks
Разрядность: 24/192
Количество каналов: 2.0

Источник (релизер): King Jazz & Classics

Лог проверки качества
foobar2000 1.4.3 / Dynamic Range Meter 1.1.1
log date: 2020-02-17 23:33:05

--------------------------------------------------------------------------------
Analyzed: Hubert Laws / Morning Star
--------------------------------------------------------------------------------

DR         Peak         RMS     Duration Track
--------------------------------------------------------------------------------
DR10      -0.01 dB   -12.23 dB      7:57 01-Morning Star
DR10      -0.01 dB   -13.54 dB      4:53 02-Let Her Go
DR9       -0.01 dB   -12.32 dB      4:33 03-Where Is The Love
DR11      -0.01 dB   -13.80 dB      5:02 04-No More
DR10      -0.01 dB   -13.84 dB      7:20 05-Amazing Grace
DR11      -0.01 dB   -14.99 dB      6:05 06-What Do You Think of This World Now?
--------------------------------------------------------------------------------

Number of tracks:  6
Official DR value: DR10

Samplerate:        192000 Hz
Channels:          2
Bits per sample:   24
Bitrate:           5398 kbps
Codec:             FLAC
================================================================================
Any questions - support@pro-jazz.com. Есть вопросы - support@pro-jazz.com
13:46
321
Нет комментариев. Ваш будет первым!