Поиск

1972 Baden Powell - Images on Guitar (2017) {MPS} [24-96]

1972 Baden Powell - Images on Guitar (2017) {MPS} [24-96]
Издатель (лейбл):
Треклист:

01 - Ate-Eu 04:35
02 - Petit Waltz 04:01
03 - Violao Vagabundo 04:36
04 - Conversação Comigo Mesmo 07:35
05 - Blues a Volonté 08:57
06 - Sentimentos - Se Voce Pergunta Nunca Vai Saber 04:15
07 - É de Lei 02:27
08 - Canto 05:03

Состав:
  • Bass – Ernesto Gonsalves
  • Drum [Atabaque], Percussion – Alfredo Bessa
  • Drums – Joaquim Paes Henriques
  • Vocals – Janine De Waleyne
  • Vocals, Guitar – Baden Powell
Доп. инфо:

Формат записи/Источник записи: [TR24][OF]
Издание: Remastered
Год издания/переиздания диска: 1972/2017
Продолжительность: 00:41:29
Наличие сканов в содержимом раздачи: Нет

Контейнер: FLAC (*.flac)
Тип рипа: tracks
Разрядность: 24/96
Количество каналов: 2.0

Источник (релизер): Qobuz

Лог проверки качества
foobar2000 1.4.3 / Dynamic Range Meter 1.1.1
log date: 2019-12-24 21:54:21

--------------------------------------------------------------------------------
Analyzed: Baden Powell / Images on Guitar
--------------------------------------------------------------------------------

DR         Peak         RMS     Duration Track
--------------------------------------------------------------------------------
DR9       -1.31 dB   -13.05 dB      4:35 01-Ate-Eu
DR11      -2.39 dB   -16.18 dB      4:01 02-Petit Waltz
DR10      -1.85 dB   -14.51 dB      4:37 03-Violao Vagabundo
DR12      -0.26 dB   -15.73 dB      7:36 04-Conversação Comigo Mesmo
DR11      -0.98 dB   -14.16 dB      8:58 05-Blues a Volonté
DR12      -5.58 dB   -20.05 dB      4:15 06-Sentimentos - Se Voce Pergunta Nunca Vai Saber
DR11      -1.38 dB   -14.97 dB      2:27 07-É de Lei
DR12      -3.49 dB   -20.52 dB      5:04 08-Canto
--------------------------------------------------------------------------------

Number of tracks:  8
Official DR value: DR11

Samplerate:        96000 Hz
Channels:          2
Bits per sample:   24
Bitrate:           2627 kbps
Codec:             FLAC
================================================================================
По всем вопросам пишите личное сообщение пользователю M0p94ok.
20:39
511
Нет комментариев. Ваш будет первым!