Вы используете незарегистрированную версию компонента "Вкладки"!

Поиск

1957-1961 Joao Gilberto - The Legend Of Joao Gilberto (2018) {RevOla} [24-44,1]

1957-1961 Joao Gilberto - The Legend Of Joao Gilberto (2018) {RevOla} [24-44,1]
Издатель (лейбл):
Доп. инфо:

Формат записи/Источник записи: [TR24][OF]
Издание: Remastered
Год издания/переиздания диска: 1957-61/2018
Издатель (лейбл): RevOla
Продолжительность: 01:15:35
Наличие сканов в содержимом раздачи: Нет

Контейнер: FLAC (*.flac)
Тип рипа: tracks
Разрядность: 24/44,1
Количество каналов: 2.0

Источник (релизер): Qobuz

Лог проверки качества
foobar2000 1.4.3 / Dynamic Range Meter 1.1.1
log date: 2019-12-29 20:33:35

--------------------------------------------------------------------------------
Analyzed: Joao Gilberto / The Legend Of Joao Gilberto 1957-61
--------------------------------------------------------------------------------

DR         Peak         RMS     Duration Track
--------------------------------------------------------------------------------
DR7        0.00 dB    -9.96 dB      2:01 01-Chega De Saudade (remastered)
DR7        0.00 dB   -10.22 dB      1:58 02-Desafinado (remastered)
DR8        0.00 dB   -10.31 dB      1:38 03-Samba De Uma Nota So (remastered)
DR9        0.00 dB   -11.22 dB      2:01 04-O Pato (remastered)
DR7        0.00 dB    -9.61 dB      1:19 05-Bolinha De Papel (remastered)
DR9        0.00 dB   -11.63 dB      2:23 06-O Amor Em Paz (remastered)
DR8        0.00 dB   -10.57 dB      1:24 07-Trevo De 4 Folhas (remastered)
DR7        0.00 dB    -8.49 dB      2:31 08-O Barquinho (remastered)
DR7        0.00 dB    -9.51 dB      1:20 09-Lobo Bobo (remastered)
DR8        0.00 dB   -11.01 dB      1:16 10-Bim Bom (remastered)
DR6        0.00 dB    -9.45 dB      2:16 11-Hó-Bá-Lá-Lá (remastered)
DR7        0.00 dB    -9.71 dB      1:34 12-A Los Pas Da Cruz (remastered)
DR7        0.00 dB   -10.44 dB      1:58 13-É Luxo Só (remastered)
DR8        0.00 dB   -11.29 dB      1:51 14-Outra Vez (remastered)
DR8        0.00 dB   -10.35 dB      2:52 15-Coisa Mais Linda (remastered)
DR9        0.00 dB   -11.46 dB      2:14 16-Este Seu Olhar (remastered)
DR8        0.00 dB   -10.52 dB      1:51 17-Trenzinho (remastered)
DR8        0.00 dB   -10.18 dB      2:05 18-Brigas, Nunca Mais (remastered)
DR7        0.00 dB    -9.54 dB      1:47 19-Saudade Fez Um Samba (remastered)
DR8        0.00 dB   -11.31 dB      1:52 20-Amor Certinho (remastered)
DR5        0.00 dB    -7.21 dB      2:25 21-Insenatez (remastered)
DR8        0.00 dB   -10.52 dB      2:05 22-Rosa Morena (remastered)
DR5        0.00 dB    -7.40 dB      1:58 23-Morena Boca De Ouro (remastered)
DR7        0.00 dB    -9.65 dB      2:22 24-Maria Ninguйm (remastered)
DR6        0.00 dB    -7.60 dB      1:52 25-A Primeira Vez (remastered)
DR5        0.00 dB    -6.98 dB      1:53 26-Presente De Natal (remastered)
DR4        0.00 dB    -7.56 dB      2:21 27-Samba Da Minha Terra (remastered)
DR5        0.00 dB    -8.89 dB      2:16 28-Saudade Da Bahia (remastered)
DR9        0.00 dB   -11.49 dB      1:58 29-Corcovado (remastered)
DR7        0.00 dB   -10.04 dB      1:47 30-Só Em Teus Braços (remastered)
DR7        0.00 dB    -9.50 dB      1:45 31-Meditacao (remastered)
DR9        0.00 dB   -11.44 dB      2:31 32-Vocé Eu (remastered)
DR7        0.00 dB    -9.75 dB      1:27 33-Doralice (remastered)
DR8        0.00 dB   -10.62 dB      1:50 34-Discussвo (remastered)
DR8        0.00 dB   -10.25 dB      1:47 35-Se E Tarde Me Perdoa (remastered)
DR9        0.00 dB   -10.57 dB      1:37 36-Um Abraзo No Bonfa (remastered)
DR10       0.00 dB   -14.02 dB      2:35 37-Manha De Carnaval (remastered)
DR5        0.00 dB    -7.29 dB      3:06 38-O Nossa Amor-A Felicidade (remastered)
--------------------------------------------------------------------------------

Number of tracks:  38
Official DR value: DR7

Samplerate:        44100 Hz
Channels:          2
Bits per sample:   24
Bitrate:           1743 kbps
Codec:             FLAC
================================================================================
Any questions - support@pro-jazz.com. Есть вопросы - support@pro-jazz.com
20:48
393
Нет комментариев. Ваш будет первым!