Поиск

1971 (2000) Joe Henderson - Joe Henderson in Japan

1971 (2000) Joe Henderson - Joe Henderson in Japan
Страна-производитель диска (релиза):
USA
Дата записи диска:
4 августа 1971
Дата издания диска:
1973
Дата переиздания диска:
2000
Номер по каталогу:
OJC 1040
Носитель:
CD
Битрейт аудио:
lossless
Аудиокодек:
FLAC (*.flac)
Тип рипа:
tracks
Время звучания:
45:03
Наличие сканов:
  • да
Релизёр (источник):
mironov_ad
Треклист:

01. 'Round Midnight (Hanighen, Monk, Williams) 12:35
02. Out 'N' In (Henderson) 9:03
03. Blue Bossa (Dorham) 8:25
04. Junk Blues (Henderson) 14:46

Состав:
  • Joe Henderson (tenor sax)
  • Hideo Ichikawa (electric piano)
  • Kunimitsu Inaba (bass)
  • Motohiko Hino (drums)

Альбом записан в Junk Club, Tokyo 4 августа 1971 года; remixed & edited by Rudi van Gelder; оцифрован в 2000 году на Fantasy Studio.
Лог создания рипа
EAC extraction logfile from 20. April 2006, 19:57 for CD
Joe Henderson / In Japan
Used drive : PIONEER DVD-RW DVR-107D Adapter: 1 ID: 0
Read mode : Secure with NO C2, accurate stream, disable cache
Read offset correction : 48
Overread into Lead-In and Lead-Out : No
Used output format : C:\Program Files\flac-1.1.2-win\bin\flac.exe (User Defined Encoder)
128 kBit/s
Additional command line options : -5 -V -T "ARTIST=%a" -T "TITLE=%t" -T "ALBUM=%g" -T "DATE=%y" -T "TRACKNUMBER=%n" -T "GENRE=%m" -T "COMMENT=EAC Flac 1.1.2 -5" %s
Other options :
Fill up missing offset samples with silence : Yes
Delete leading and trailing silent blocks : No
Native Win32 interface for Win NT & 2000
Track 1
Filename C:\DAE\01 - 'Round Midnight.wav
Pre-gap length 0:00:02.00
Peak level 100.0 %
Track quality 100.0 %
Test CRC 1F66FAA8
Copy CRC 1F66FAA8
Copy OK
Track 2
Filename C:\DAE\02 - Out 'n' In.wav
Pre-gap length 0:00:02.77
Peak level 100.0 %
Track quality 100.0 %
Test CRC 58258FEB
Copy CRC 58258FEB
Copy OK
Track 3
Filename C:\DAE\03 - Blue Bossa.wav
Pre-gap length 0:00:02.65
Peak level 100.0 %
Track quality 100.0 %
Test CRC 25D4C470
Copy CRC 25D4C470
Copy OK
Track 4
Filename C:\DAE\04 - Junk Blues.wav
Pre-gap length 0:00:02.46
Peak level 100.0 %
Track quality 100.0 %
Test CRC 55E3FC61
Copy CRC 55E3FC61
Copy OK
No errors occured
End of status report
Приватный:
Нет (DHT включён)
Размер:
294.94 Мб (309,267,200 байт) » файлов: 10
Участники:
0 раздают, 0 качают (0 участников всего)
Внешние участники:
2 раздают, 1 качают (3 участников всего) [ Обновить ]
18:11
98
RSS
Нет комментариев. Ваш будет первым!