Поиск

1964 (1990) Art Blakey & The Jazz Messengers - Kyoto

1964 (1990) Art Blakey & The Jazz Messengers - Kyoto
Дата записи диска:
20 февраля 1964
Дата издания диска:
1964
Дата переиздания диска:
1990
Номер по каталогу:
OJC 145
Носитель:
CD
Битрейт аудио:
lossless
Аудиокодек:
FLAC (*.flac)
Тип рипа:
tracks+.cue
Время звучания:
32:21
Наличие сканов:
  • да
Треклист:

01. The High Priest (Fuller) 5:55
02. Never Never Land (Comden, Green, Styne) 5:50
03. Wellington's Blues (Blakey) 5:03
04. Nihon Bashi (Watanabe) 8:30
05. Kyoto (Hubbrad) 7:03

Состав:
  • Freddie Hubbard (trumpet)
  • Wayne Shorter (tenor sax)
  • Curtis Fuller (trombone)
  • Cedar Walton (piano)
  • Reggie Workman (bass)
  • Art Blakey (drums)
  • Wellington Blakey (vocal)

Альбом записан 20 февраля 1964 года, оцифрован в 1990 году на Fantasy Studios. Заметьте редкое появление с Messengers кузена Blakey Wellington, который исполняет «Wellington's Blues».
Лог создания рипа
EAC extraction logfile from 13. August 2006, 23:43 for CD
Art Blakey / Kyoto
Used drive : HL-DT-STDVDRAM GSA-4163B Adapter: 1 ID: 1
Read mode : Secure with NO C2, accurate stream, disable cache
Combined read/write offset correction : 0
Overread into Lead-In and Lead-Out : No
Used output format : Internal WAV Routines
44.100 Hz; 16 Bit; Stereo
Other options :
Fill up missing offset samples with silence : Yes
Delete leading and trailing silent blocks : No
Installed external ASPI interface
Track 1
Filename D:\Art Blakey - Kyoto [FLAC][eMuc]\01 - The High Priest.wav
Peak level 84.1 %
Track quality 100.0 %
Test CRC A5155794
Copy CRC A5155794
Copy OK
Track 2
Filename D:\Art Blakey - Kyoto [FLAC][eMuc]\02 - Never Never Land.wav
Peak level 88.2 %
Track quality 100.0 %
Test CRC A73954BB
Copy CRC A73954BB
Copy OK
Track 3
Filename D:\Art Blakey - Kyoto [FLAC][eMuc]\03 - Wellingotn's Blues.wav
Peak level 86.9 %
Track quality 100.0 %
Test CRC 747E50E5
Copy CRC 747E50E5
Copy OK
Track 4
Filename D:\Art Blakey - Kyoto [FLAC][eMuc]\04 - Nihon Bash.wav
Peak level 97.2 %
Track quality 100.0 %
Test CRC 42334381
Copy CRC 42334381
Copy OK
Track 5
Filename D:\Art Blakey - Kyoto [FLAC][eMuc]\05 - Kyoto.wav
Peak level 92.2 %
Track quality 100.0 %
Test CRC 6D3EF046
Copy CRC 6D3EF046
Copy OK
No errors occured
End of status report
Приватный:
Нет (DHT включён)
Размер:
199.21 Мб (208,884,564 байт) » файлов: 12
Участники:
0 раздают, 0 качают (0 участников всего)
Внешние участники:
1 раздают, 0 качают (1 участников всего) [ Обновить ]
18:09
84
RSS
Нет комментариев. Ваш будет первым!