Поиск

1970 Wolfgang Dauner (feat. Eberhard Weber) - Output (2019) {ECM} [24-96]

1970 Wolfgang Dauner (feat. Eberhard Weber) - Output (2019) {ECM} [24-96]
Издатель (лейбл):
Номер по каталогу:
1006
Доп. инфо:

Формат записи/Источник записи: [TR24][OF]
Наличие водяных знаков: Нет
Издание: Remastered
Год издания/переиздания диска: 1970/2019
Продолжительность: 37:36
Наличие сканов в содержимом раздачи: Только обложка альбома

Контейнер: FLAC (*.flac)
Тип рипа: tracks
Разрядность: 24/96
Формат: PCM
Количество каналов: 2.0

Источник: highresaudio.com

Лог проверки качества
foobar2000 1.3.9 / Dynamic Range Meter 1.1.1
log date: 2019-12-17 02:48:43

--------------------------------------------------------------------------------
Analyzed: Wolfgang Dauner / Output
--------------------------------------------------------------------------------

DR         Peak         RMS     Duration Track
--------------------------------------------------------------------------------
DR16      -3.10 dB   -24.05 dB      5:53 01-Mudations
DR13      -1.21 dB   -18.16 dB      7:49 02-Output
DR14      -1.06 dB   -20.25 dB      4:20 03-Bruch
DR11      -1.49 dB   -16.12 dB     10:42 04-Nothing To Declare
DR14      -3.20 dB   -22.12 dB      4:27 05-Abraxas
DR17      -2.29 dB   -23.65 dB      4:24 06-Brazing The High Sky Full
--------------------------------------------------------------------------------

Number of tracks:  6
Official DR value: DR14

Samplerate:        96000 Hz
Channels:          2
Bits per sample:   24
Bitrate:           2818 kbps
Codec:             FLAC
================================================================================
No seeders - write personal message to M0p94ok. Any questions - support@pro-jazz.com.
Нет сидеров - пишите в личку M0p94ok. Есть вопросы - support@pro-jazz.com
08:45
411
Нет комментариев. Ваш будет первым!