Вы используете незарегистрированную версию компонента "Вкладки"!

Поиск

1969 VA - Piano x 4 (2019) {MPS} [24-88,2]

1969 VA - Piano x 4 (2019) {MPS} [24-88,2]
Стили:
Доп. инфо:

Формат записи/Источник записи: [TR24][OF]
Наличие водяных знаков: Нет
Издание: Remastered
Год издания/переиздания диска: 1969/2019
Издатель (лейбл): MPS Records
Продолжительность: 35:37
Наличие сканов в содержимом раздачи: Только обложка альбома

Контейнер: FLAC (*.flac)
Тип рипа: tracks
Разрядность: 24/88,2
Формат: PCM
Количество каналов: 2.0

Источник: highresaudio.com

Лог проверки качества
foobar2000 1.3.9 / Dynamic Range Meter 1.1.1
log date: 2019-12-17 03:21:29

--------------------------------------------------------------------------------
Analyzed: Dieter Reith Quintett / Piano x 4 (1-2)
          Elsie Bianchi Trio / Piano x 4 (3-4)
          The Modern Jazz Group Freiburg / Piano x 4 (5-6)
          Wolfgang Dauner Quartett / Piano x 4 (7-9)
--------------------------------------------------------------------------------

DR         Peak         RMS     Duration Track
--------------------------------------------------------------------------------
DR11      -1.05 dB   -15.26 dB      5:37 06-Willow Weep For Me
DR10      -1.93 dB   -14.76 dB      3:07 07-Goofin' At Each Other
DR12      -3.71 dB   -17.51 dB      3:02 04-Baron Lazor
DR13      -2.05 dB   -17.26 dB      3:30 05-What Is This Thing Called Love
DR12      -1.50 dB   -16.40 dB      4:37 08-You Do Something To Me
DR13      -0.78 dB   -16.37 dB      5:05 09-Big “P”
DR12      -1.42 dB   -16.28 dB      3:20 01-Take The A-Train
DR9       -2.67 dB   -17.84 dB      3:52 02-Waltz For A Young Girl
DR11      -2.17 dB   -16.31 dB      3:28 03-Take The Coltrane
--------------------------------------------------------------------------------

Number of tracks:  9
Official DR value: DR11

Samplerate:        88200 Hz
Channels:          2
Bits per sample:   24
Bitrate:           2785 kbps
Codec:             FLAC
================================================================================
Any questions - support@pro-jazz.com. Есть вопросы - support@pro-jazz.com
17:43
260
Нет комментариев. Ваш будет первым!