Вы используете незарегистрированную версию компонента "Вкладки"!

Поиск

1969 Cannonball Adderley Quintet - Cannonball Adderley Quintet (2018) {2xHD} [24-192]

1969 Cannonball Adderley Quintet - Cannonball Adderley Quintet (2018) {2xHD} [24-192]
Стили:
Издатель (лейбл):
Битрейт аудио:
lossless
Доп. инфо:

Формат записи/Источник записи: [TR24][OF]
Издание: Remastered
Год издания/переиздания диска: 1969/2018
Продолжительность: 00:38:31
Наличие сканов в содержимом раздачи: Буклет PDF

Контейнер: FLAC (*.flac)
Тип рипа: tracks
Разрядность: 24/192
Количество каналов: 2.0

Источник (релизер): Presto Jazz

Лог проверки качества
foobar2000 1.4.3 / Dynamic Range Meter 1.1.1
log date: 2020-06-19 08:17:33

--------------------------------------------------------------------------------
Analyzed: Cannonball Adderley Quintet / Cannonball Adderley Quintet
--------------------------------------------------------------------------------

DR         Peak         RMS     Duration Track
--------------------------------------------------------------------------------
DR12      -1.49 dB   -16.36 dB      4:47 01-Work Song
DR11      -0.35 dB   -15.22 dB     12:22 02-Rumpelstiltskin
DR13      -0.86 dB   -16.06 dB      4:21 03-Sweet Emma
DR11      -0.74 dB   -14.46 dB      8:09 04-Why Am I Treated so Bad
DR12      -0.02 dB   -16.62 dB      8:54 05-The Painted Desert
--------------------------------------------------------------------------------

Number of tracks:  5
Official DR value: DR12

Samplerate:        192000 Hz
Channels:          2
Bits per sample:   24
Bitrate:           5241 kbps
Codec:             FLAC
================================================================================
Any questions - support@pro-jazz.com. Есть вопросы - support@pro-jazz.com
20:48
255
Нет комментариев. Ваш будет первым!