Вы используете незарегистрированную версию компонента "Вкладки"!

Поиск

1956-1962 Ahmad Jamal Trio - Complete Argo Sessions Vol.9 (2018) {Crazy Warthog} [24-44,1]

1956-1962 Ahmad Jamal Trio - Complete Argo Sessions Vol.9 (2018) {Crazy Warthog} [24-44,1]
Стили:
Битрейт аудио:
lossless
Доп. инфо:

Формат записи/Источник записи: [TR24][OF]
Издание: Remastered
Год издания/переиздания диска: 2018
Издатель (лейбл): Crazy Warthog Media
Продолжительность: 00:56:06
Наличие сканов в содержимом раздачи: Нет
Контейнер: FLAC (*.flac)
Тип рипа: tracks
Разрядность: 24/44,1
Количество каналов: 2.0

Источник (релизер): Qobuz

Лог проверки качества
foobar2000 1.3.7 / Dynamic Range Meter 1.1.1
log date: 2019-07-02 05:06:18

--------------------------------------------------------------------------------
Analyzed: Ahmad Jamal / Coplete Ahmad Jamal Trio Argo Sessions Vol.9 1956-1962
--------------------------------------------------------------------------------

DR         Peak         RMS     Duration Track
--------------------------------------------------------------------------------
DR12      -0.67 dB   -18.09 dB      6:53 01-Like Someone in Love
DR16      -0.17 dB   -20.93 dB      5:31 02-Second Time Around
DR14      -0.37 dB   -18.90 dB      6:51 03-Angel Eyes
DR13      -0.20 dB   -17.92 dB      6:42 04-Alone Together-Love Walked In
DR13      -0.48 dB   -17.99 dB      3:36 05-Smoke Gets in Your Eyes
DR14      -0.02 dB   -19.05 dB      3:49 06-I'm Old Fashioned
DR13      -0.21 dB   -18.16 dB     10:32 07-We Kiss in a Shadow
DR14      -0.49 dB   -19.98 dB      4:51 08-Second Time Around (Take 2)
DR14      -0.13 dB   -18.88 dB      7:27 09-Like Someone in Love (Take 2)
--------------------------------------------------------------------------------

Number of tracks:  9
Official DR value: DR14

Samplerate:        44100 Hz
Channels:          2
Bits per sample:   24
Bitrate:           1388 kbps
Codec:             FLAC
================================================================================
Any questions - support@pro-jazz.com. Есть вопросы - support@pro-jazz.com
20:13
218
Нет комментариев. Ваш будет первым!