Поиск

1968 Miles Davis - Miles in the Sky {Columbia, Legacy} [24-192]

1968 Miles Davis - Miles in the Sky {Columbia, Legacy} [24-192]
Стили:
Дата записи диска:
16 января - 17 мая 1968
Место записи:
Columbia Studio B, New York, NY
Издатель (лейбл):
Носитель:
WEB
Формат:
PCM
Тип рипа:
tracks
Контейнер:
FLAC (*.flac)
Количество каналов:
2.0
Разрядность/ЧД:
24/192
Битрейт аудио:
lossless
Время звучания:
00:51:04
Наличие сканов:
только обложка

Треклист:

01 - Stuff 17:02
02 - Paraphernalia 12:41
03 - Black Comedy 07:31
04 - Country Son 13:50

Состав:
Доп. инфо:

Выпустив в 1968 году альбом Miles in the Sky, Майлз Дэвис явно отодвинул свой второй великий квинтет от традиционного джаза, подтолкнув их к гибриду джаза и рока, который позже станет известен как фьюжн. Здесь музыка все еще находится на стадии становления, и она немного более приземленная, чем можно было бы ожидать, особенно после "Нефертити", меняющей форму и неуловимой. На "Miles in the Sky" большая часть ритмов прямолинейна, подхватывая прямые удары 4/4 рока, и они освещены электрическим фортепиано Херби Хэнкока - одним из самых первых звуков на записи, собственно говоря, - и гостевым появлением гитариста Джорджа Бенсона на "Paraphernalia". Все эти дополнения ощутимы и идентифицируемы, и они действительно приводят к интригующей музыке, но сама форма музыки удивительно прямая, играющая как расширенный грув. Этот альбом меандрирует гораздо больше, чем Nefertiti, даже если он значительно менее эллиптичен по своей форме, потому что это в основном четыре длинных джема. Интригующие, успешные во многих отношениях джемы, но даже с заметным добавлением электрических инструментов и с намеренно шумной "Country Son", этот альбом менее провидческий, чем его предшественник, и ощущается как переходный альбом - и, как многие переходные альбомы, он интригует и разочаровывает в равной степени.

Лог проверки качества
foobar2000 1.4.6 / Dynamic Range Meter 1.1.1
log date: 2021-09-06 20:04:06
--------------------------------------------------------------------------------
Analyzed: Miles Davis / Miles in the Sky
--------------------------------------------------------------------------------
DR         Peak         RMS     Duration Track
--------------------------------------------------------------------------------
DR12      -0.28 dB   -15.20 dB     17:02 01-Stuff
DR14      -0.53 dB   -18.43 dB     12:41 02-Paraphernalia
DR12      -0.96 dB   -16.64 dB      7:31 03-Black Comedy
DR13      -0.43 dB   -16.86 dB     13:51 04-Country Son
--------------------------------------------------------------------------------
Number of tracks:  4
Official DR value: DR13
Samplerate:        192000 Hz
Channels:          2
Bits per sample:   24
Bitrate:           6307 kbps
Codec:             FLAC
================================================================================
По всем вопросам пишите личное сообщение пользователю M0p94ok.
13:59
131
Нет комментариев. Ваш будет первым!