Вы используете незарегистрированную версию компонента "Вкладки"!

Поиск

1968 Lee Konitz, Pony Poindexter, Phil Woods, Leo Wright - Alto Summit (2016) [24-88,2]

1968 Lee Konitz, Pony Poindexter, Phil Woods, Leo Wright - Alto Summit (2016) [24-88,2]
Стили:
Дата записи диска:
2 июня - 3 июня 1968
Место записи:
MPS Tonstudio, Villingen, Black Forest
Дата переиздания диска:
18 ноября 2016
Доп. инфо:

Формат записи/Источник записи: [TR24][OF]
Наличие водяных знаков: Нет
Издание: Remastered
Год издания/переиздания диска: 1968/2016
Издатель (лейбл): MPS Records
Продолжительность: 45:43
Наличие сканов в содержимом раздачи: Только обложка альбома
Контейнер: FLAC (*.flac)
Тип рипа: tracks
Разрядность: 24/88,2
Формат: PCM
Количество каналов: 2.0 Источник: highresaudio.com

Этот необычный альбом объединяет альты Ли Конитца, Пони Пойндекстера, Фила Вудса и Лео Райта (вместе с пианистом Стивом Куном, басистом Палле Даниэльссоном и барабанщиком Джоном Кристенсеном) для создания разнообразного сложного материала. Есть четыре пьесы для полного септета (включая ту, которая отдает дань уважения Баху и Берду), пара выступлений квинтета и попурри из баллад, которые заканчиваются полным фиаско (это нужно услышать, чтобы поверить). Несмотря на последнее, на этом саммите все хорошо.

На Alto Summit представлены четыре великих саксофона Чарли Паркера. Ли Кониц был главной силой в бопе, крутом джазе и авангарде. Игра Пони Пойндекстера более блюзова; он записывался со всеми, от Паркера до Ламберта Хендрикса и Росса. Названный лучшим альт-саксофонистом примерно в 30 опросах Downbeat Фил Вудс был наиболее известен своими собственными группами, чьи записи получили четыре премии Грэмми, в то время как Лео Райт известен своей работой с Диззи Гиллеспи и такими, как Нэт Аддерли и Кенни Дрю. Четверку поддерживает лучшая ритм-секция, в том числе пианист Стив Кун, прославившийся Джоном Колтрейном. На блюзовой "Родной земле" Райт выкрикивает эту тему. Порядок соло - Ли, Фил, Пони, а затем Ли. В смеси классических баллад много души: сначала Лео берет первую пьесу, затем Пони, Фил и, наконец, Ли; он заканчивается потрясающей групповой импровизацией. Со своей модернистской темой, Prompt - это зрелище, в котором Лео, Пони, Ли и затем Фил затмевают друг друга. The Perils of Poda исполняют соло на фортепиано, прежде чем Фил, Ли, Пони и Лео вступают во владение. В веселой Good Booty Pony представлены Пони и Фил, а в Lee-o’s Blues - неторопливая прогулка по душе Лео и Ли. «Дань Ли Баху и Птице» сочетает в себе хоральную кантату Баха с соло Чарли Паркера и включает дуэт и коллективную альт-игру. Четыре мастера альта объединяют свои самобытные стили в джазовом тур-де-форсе.

Лог проверки качества
foobar2000 1.3.9 / Dynamic Range Meter 1.1.1
log date: 2018-08-20 12:24:51
--------------------------------------------------------------------------------
Analyzed: Lee Konitz, Pony Poindexter, Phil Woods, Leo Wright / Alto Summit
--------------------------------------------------------------------------------
DR         Peak         RMS     Duration Track
--------------------------------------------------------------------------------
DR11      -0.87 dB   -14.59 dB      6:14 01-Native Land
DR12      -2.98 dB   -19.11 dB     11:21 02-Ballad Medley
DR12      -3.95 dB   -18.70 dB      5:42 03-Prompt
DR11      -2.51 dB   -15.96 dB      5:14 04-The Perils Of Poda
DR12      -1.56 dB   -15.81 dB      8:19 05-Good Booty
DR12      -1.11 dB   -15.45 dB      4:32 06-Lee-o's Blues
DR11      -1.75 dB   -16.95 dB      4:21 07-Lee's Tribute To Bach And Bird
--------------------------------------------------------------------------------
Number of tracks:  7
Official DR value: DR11
Samplerate:        88200 Hz
Channels:          2
Bits per sample:   24
Bitrate:           2661 kbps
Codec:             FLAC
================================================================================
Any questions - support@pro-jazz.com. Есть вопросы - support@pro-jazz.com
03:52
276
Нет комментариев. Ваш будет первым!