Поиск

1968 (1986) McCoy Tyner - Time For Tyner (RVG Edition) {Blue Note CDP-84307}

1968 (1986) McCoy Tyner - Time For Tyner (RVG Edition) {Blue Note CDP-84307}
Страна-производитель диска (релиза):
USA
Дата записи диска:
17 мая 1968
Дата издания диска:
1968
Дата переиздания диска:
1986
Издатель (лейбл):
Номер по каталогу:
CDP-84307
Носитель:
CD
Битрейт аудио:
lossless
Аудиокодек:
FLAC (*.flac)
Тип рипа:
tracks+.cue
Время звучания:
42:45
Наличие сканов:
  • да
Релизёр (источник):
AlexMachen

Треклист:

01 - African Village (12:09)
02 - Little Madimba (8:32)
03 - May Street (5:18)
04 - I Didnt Know What Time (7:09)
05 - The Surrey With The Fringe On Top (5:11)
06 - Ive Grown Accustomed To Her Face (4:26)

Состав:
  • Bob Blumenthal Liner Notes
  • Bobby Hutcherson Vibraphone
  • Herbie Lewis Bass
  • McCoy Tyner Composer, Piano
  • Rudy Van Gelder Audio Engineer, Original Engineering, Remastering
  • Freddie Waits Drums
  • Ed Williams Liner Notes
  • Francis Wolff Audio Production, Photography, Producer

Записано в Van Gelder Studios, Englewood Cliffs, NJ

Лог создания рипа
EAC extraction logfile from 15. May 2006, 14:32 for CD
McCoy Tyner / Time For Tyner

Used drive : _NEC DVD_RW ND-3520A Adapter: 1 ID: 0
Read mode : Secure with NO C2, accurate stream, disable cache
Combined read/write offset correction : 48
Overread into Lead-In and Lead-Out : No

Used output format : C:\Archivos de programa\FLAC\flac.exe (User Defined Encoder)
128 kBit/s
Additional command line options : --best -V -T "date=%y" -T "genre=%m" %s

Other options :
Fill up missing offset samples with silence : Yes
Delete leading and trailing silent blocks : No
Installed external ASPI interface

Track 1
Filename C:\EMULE\Incoming\McCoy Tyner - Time For Tyner\African Village.wav

Peak level 97.9 %
Track quality 99.9 %
Copy CRC 204C8ED6
Copy OK

Track 2
Filename C:\EMULE\Incoming\McCoy Tyner - Time For Tyner\Little Madimba.wav

Peak level 97.9 %
Track quality 99.9 %
Copy CRC 8A63E93D
Copy OK

Track 3
Filename C:\EMULE\Incoming\McCoy Tyner - Time For Tyner\May Street.wav

Peak level 97.9 %
Track quality 99.9 %
Copy CRC D675F534
Copy OK

Track 4
Filename C:\EMULE\Incoming\McCoy Tyner - Time For Tyner\I Didnt Know What Time.wav

Peak level 97.3 %
Track quality 100.0 %
Copy CRC 33AE7D44
Copy OK

Track 5
Filename C:\EMULE\Incoming\McCoy Tyner - Time For Tyner\The Surrey With The Fringe On Top.wav

Peak level 97.9 %
Track quality 99.9 %
Copy CRC 4BED7804
Copy OK

Track 6
Filename C:\EMULE\Incoming\McCoy Tyner - Time For Tyner\Ive Grown Accustomed To Her Face.wav

Peak level 76.4 %
Track quality 100.0 %
Copy CRC 9C3B681E
Copy OK

No errors occured

End of status report
Содержание индексной карты (.CUE)
REM GENRE Jazz
REM DATE 1968
REM DISCID 430A0506
REM COMMENT "ExactAudioCopy v0.95b3"
CATALOG 0724356383920
PERFORMER "McCoy Tyner"
TITLE "Time For Tyner"
FILE "African Village.wav" WAVE
TRACK 01 AUDIO
TITLE "African Village"
PERFORMER "McCoy Tyner"
ISRC USBN20300581
INDEX 01 00:00:00
TRACK 02 AUDIO
TITLE "Little Madimba"
PERFORMER "McCoy Tyner"
ISRC USBN20300584
INDEX 00 12:06:29
FILE "Little Madimba.wav" WAVE
INDEX 01 00:00:00
TRACK 03 AUDIO
TITLE "May Street"
PERFORMER "McCoy Tyner"
ISRC USBN20300583
INDEX 00 08:30:09
FILE "May Street.wav" WAVE
INDEX 01 00:00:00
TRACK 04 AUDIO
TITLE "I Didn't Know What Time It Was"
PERFORMER "McCoy Tyner"
ISRC USBN20300585
INDEX 00 05:16:57
FILE "I Didn't Know What Time It Was.wav" WAVE
INDEX 01 00:00:00
TRACK 05 AUDIO
TITLE "The Surrey With The Fringe On Top"
PERFORMER "McCoy Tyner"
ISRC USBN20300586
INDEX 00 07:07:37
FILE "The Surrey With The Fringe On Top.wav" WAVE
INDEX 01 00:00:00
TRACK 06 AUDIO
TITLE "I've Grown Accustomed To Your Face"
PERFORMER "McCoy Tyner"
ISRC USBN20300587
INDEX 00 05:07:71
FILE "I've Grown Accustomed To Your Face.wav" WAVE
INDEX 01 00:00:00
Приватный:
Нет (DHT включён)
Размер:
251.29 Мб (263,501,727 байт) » файлов: 19
Участники:
0 раздают, 0 качают (0 участников всего)
Внешние участники:
3 раздают, 1 качают (4 участников всего) [ Обновить ]
22:38
86
RSS
Нет комментариев. Ваш будет первым!