Поиск

1958 (1999) Sonny Clark - Cool Struttin' {Blue Note 7243 4 95327 2 4}

1958 (1999) Sonny Clark - Cool Struttin' {Blue Note 7243 4 95327 2 4}
Стили:
Страна-производитель диска (релиза):
USA
Дата записи диска:
5 января 1958
Дата издания диска:
1958
Дата переиздания диска:
1999
Издатель (лейбл):
Номер по каталогу:
7243 4 95327 2 4
Носитель:
CD
Битрейт аудио:
lossless
Аудиокодек:
FLAC (*.flac)
Тип рипа:
tracks+.cue
Время звучания:
53:38
Наличие сканов:
  • да
Релизёр (источник):
ordo

Треклист:
 
01. Cool Struttin' 9:19
02. Blue Minor 10:15
03. Sippin' at Bells 8:13
04. Deep Night 9:28
05. Royal Flush [bonus track] 8:58
06. Lover [bonus track] 7:01
 
 
Состав:
  • Paul Chambers Bass
  • Sonny Clark Composer, Piano
  • Michael Cuscuna Liner Notes, Producer, Reissue Producer
  • Art Farmer Trumpet
  • Philly Joe Jones Drums
  • Alfred Lion Producer
  • Jackie McLean Sax (Alto)
  • Rudy Van Gelder Engineer
Лог создания рипа
Exact Audio Copy V0.99 prebeta 5 from 4. May 2009

EAC extraction logfile from 25. August 2009, 16:28

Sonny Clark / Cool Struttin'

Used drive  : HL-DT-STDVDRAM GH22NS40   Adapter: 2  ID: 0

Read mode               : Secure
Utilize accurate stream : Yes
Defeat audio cache      : Yes
Make use of C2 pointers : No

Read offset correction                      : 667
Overread into Lead-In and Lead-Out          : No
Fill up missing offset samples with silence : Yes
Delete leading and trailing silent blocks   : No
Null samples used in CRC calculations       : Yes
Used interface                              : Native Win32 interface for Win NT & 2000
Gap handling                                : Appended to previous track

Used output format              : User Defined Encoder
Selected bitrate                : 128 kBit/s
Quality                         : High
Add ID3 tag                     : No
Command line compressor         : C:\Program Files (x86)\Exact Audio Copy\Flac\flac.exe
Additional command line options : -8 -V -T "ARTIST=%a" -T "TITLE=%t" -T "ALBUM=%g" -T "DATE=%y" -T "TRACKNUMBER=%n" -T "GENRE=%m" -T "COMMENT=EAC FLAC -8" %s


TOC of the extracted CD

     Track |   Start  |  Length  | Start sector | End sector 
    ---------------------------------------------------------
        1  |  0:00.00 |  9:23.46 |         0    |    42270   
        2  |  9:23.46 | 10:19.55 |     42271    |    88750   
        3  | 19:43.26 |  8:18.30 |     88751    |   126130   
        4  | 28:01.56 |  9:34.04 |    126131    |   169184   
        5  | 37:35.60 |  9:00.72 |    169185    |   209756   
        6  | 46:36.57 |  7:01.24 |    209757    |   241355   


Track  1

     Filename H:\Jazz Music\ONLY JAZZ\Sonny Clark\Sonny Clark - Cool Struttin' - 1958 {RVG Edition}\01. Cool Struttin.wav

     Pre-gap length  0:00:02.00

     Peak level 97.9 %
     Track quality 100.0 %
     Test CRC 136AFAE8
     Copy CRC 136AFAE8
     Accurately ripped (confidence 18)  [C0A60D8F]
     Copy OK

Track  2

     Filename H:\Jazz Music\ONLY JAZZ\Sonny Clark\Sonny Clark - Cool Struttin' - 1958 {RVG Edition}\02. Blue Minor.wav

     Pre-gap length  0:00:04.09

     Peak level 97.9 %
     Track quality 100.0 %
     Test CRC 9B02D57D
     Copy CRC 9B02D57D
     Accurately ripped (confidence 18)  [AD3FF9F4]
     Copy OK

Track  3

     Filename H:\Jazz Music\ONLY JAZZ\Sonny Clark\Sonny Clark - Cool Struttin' - 1958 {RVG Edition}\03. Sippin' At Bells.wav

     Pre-gap length  0:00:04.76

     Peak level 97.9 %
     Track quality 99.9 %
     Test CRC 87D33413
     Copy CRC 87D33413
     Accurately ripped (confidence 18)  [FF87C4DE]
     Copy OK

Track  4

     Filename H:\Jazz Music\ONLY JAZZ\Sonny Clark\Sonny Clark - Cool Struttin' - 1958 {RVG Edition}\04. Deep Night.wav

     Pre-gap length  0:00:04.24

     Peak level 97.9 %
     Track quality 100.0 %
     Test CRC 0830FFC4
     Copy CRC 0830FFC4
     Accurately ripped (confidence 17)  [8BA664C2]
     Copy OK

Track  5

     Filename H:\Jazz Music\ONLY JAZZ\Sonny Clark\Sonny Clark - Cool Struttin' - 1958 {RVG Edition}\05. Royal Flush.wav

     Pre-gap length  0:00:04.84

     Peak level 97.9 %
     Track quality 100.0 %
     Test CRC FABB85B7
     Copy CRC FABB85B7
     Accurately ripped (confidence 17)  [ACB60179]
     Copy OK

Track  6

     Filename H:\Jazz Music\ONLY JAZZ\Sonny Clark\Sonny Clark - Cool Struttin' - 1958 {RVG Edition}\06. Lover.wav

     Pre-gap length  0:00:03.66

     Peak level 91.8 %
     Track quality 100.0 %
     Test CRC 6DD23401
     Copy CRC 6DD23401
     Accurately ripped (confidence 17)  [33CA3116]
     Copy OK


All tracks accurately ripped

No errors occurred

End of status report
Содержание индексной карты (.CUE)
REM GENRE Jazz
REM DATE 1958
REM DISCID 5D0C9206
REM COMMENT "ExactAudioCopy v0.99pb5"
PERFORMER "Sonny Clark"
TITLE "Cool Struttin'"
FILE "01. Cool Struttin.wav" WAVE
  TRACK 01 AUDIO
    TITLE "Cool Struttin"
    PERFORMER "Sonny Clark"
    FLAGS DCP
    INDEX 01 00:00:00
  TRACK 02 AUDIO
    TITLE "Blue Minor"
    PERFORMER "Sonny Clark"
    FLAGS DCP
    INDEX 00 09:19:39
FILE "02. Blue Minor.wav" WAVE
    INDEX 01 00:00:00
  TRACK 03 AUDIO
    TITLE "Sippin' At Bells"
    PERFORMER "Sonny Clark"
    FLAGS DCP
    INDEX 00 10:14:73
FILE "03. Sippin' At Bells.wav" WAVE
    INDEX 01 00:00:00
  TRACK 04 AUDIO
    TITLE "Deep Night"
    PERFORMER "Sonny Clark"
    FLAGS DCP
    INDEX 00 08:14:12
FILE "04. Deep Night.wav" WAVE
    INDEX 01 00:00:00
  TRACK 05 AUDIO
    TITLE "Royal Flush"
    PERFORMER "Sonny Clark"
    FLAGS DCP
    INDEX 00 09:29:16
FILE "05. Royal Flush.wav" WAVE
    INDEX 01 00:00:00
  TRACK 06 AUDIO
    TITLE "Lover"
    PERFORMER "Sonny Clark"
    FLAGS DCP
    INDEX 00 08:57:22
FILE "06. Lover.wav" WAVE
    INDEX 01 00:00:00
Приватный:
Нет (DHT включён)
Размер:
390.13 Мб (409,080,336 байт) » файлов: 17
Участники:
0 раздают, 0 качают (0 участников всего)
Внешние участники:
11 раздают, 4 качают (15 участников всего) [ Обновить ]
12:56
141
RSS
Нет комментариев. Ваш будет первым!