Поиск

1967 (1991) Horace Silver - The Jody Grind

1967 (1991) Horace Silver - The Jody Grind
Страна-производитель диска (релиза):
USA
Дата записи диска:
2 и 23 ноября 1966
Дата издания диска:
март 1967
Дата переиздания диска:
1991
Носитель:
CD
Битрейт аудио:
lossless
Аудиокодек:
FLAC (*.flac)
Тип рипа:
tracks
Время звучания:
39:42
Наличие сканов:
  • да
Релизёр (источник):
mironov_ad
Треклист:

1. The Jody Grind (Silver) 5:53
2. Mary Lou (Silver) 7:12
3. Mexican Hip Dance (Silver) 5:56
4. Blue Silver (Silver) 6:00
5. Grease Piece (Silver) 7:34
6. Dimples (Silver) 7:18

Состав:
  • Horace Silver – piano
  • Woody Shaw – trumpet
  • Tyrone Washington – tenor sax
  • James Spaulding – alto sax on tracks 2, 4, 5, flute solo on 2
  • Larry Ridley – bass
  • Roger Humphries – drums
  • Producer Alfred Lion
Лог создания рипа
<spoiler title="Лог создания рипа"><pre>
EAC extraction logfile from 16. May 2006, 8:09 for CD
Horace Silver / The Jody Grind
Used drive : PLEXTOR CD-R PX-W4824A Adapter: 1 ID: 0
Read mode : Secure with C2, accurate stream, disable cache
Read offset correction : 98
Overread into Lead-In and Lead-Out : Yes
Used output format : C:\Program Files\Exact Audio Copy\flac.exe (User Defined Encoder)
320 kBit/s
Additional command line options : -8 -V -T "artist=%a" -T "title=%t" -T "album=%g" -T "date=%y" -T "tracknumber=%n" -T "genre=%m" %s
Other options :
Fill up missing offset samples with silence : Yes
Delete leading and trailing silent blocks : No
Native Win32 interface for Win NT & 2000
Track 1
Filename E:\05_NEW RIPS\Horace Silver - The Jody Grind\01 - The Jody Grind (Horace Silver - The Jody Grind).wav
Pre-gap length 0:00:02.00
Peak level 89.8 %
Track quality 100.0 %
Test CRC BAA7FD4B
Copy CRC BAA7FD4B
Copy OK
Track 2
Filename E:\05_NEW RIPS\Horace Silver - The Jody Grind\02 - Mary Lou (Horace Silver - The Jody Grind).wav
Pre-gap length 0:00:02.06
Peak level 90.9 %
Track quality 100.0 %
Test CRC 83C0C17F
Copy CRC 83C0C17F
Copy OK
Track 3
Filename E:\05_NEW RIPS\Horace Silver - The Jody Grind\03 - Mexican Hip Dance (Horace Silver - The Jody Grind).wav
Pre-gap length 0:00:01.26
Peak level 89.8 %
Track quality 100.0 %
Test CRC D102BB32
Copy CRC D102BB32
Copy OK
Track 4
Filename E:\05_NEW RIPS\Horace Silver - The Jody Grind\04 - Blue Silver (Horace Silver - The Jody Grind).wav
Pre-gap length 0:00:01.10
Peak level 89.7 %
Track quality 100.0 %
Test CRC 76F82372
Copy CRC 76F82372
Copy OK
Track 5
Filename E:\05_NEW RIPS\Horace Silver - The Jody Grind\05 - Grease Piece (Horace Silver - The Jody Grind).wav
Pre-gap length 0:00:01.62
Peak level 89.2 %
Track quality 100.0 %
Test CRC 49D62904
Copy CRC 49D62904
Copy OK
Track 6
Filename E:\05_NEW RIPS\Horace Silver - The Jody Grind\06 - Dimples (Horace Silver - The Jody Grind).wav
Pre-gap length 0:00:01.60
Peak level 90.7 %
Track quality 100.0 %
Test CRC BABDE78E
Copy CRC BABDE78E
Copy OK
No errors occured
End of status report
</pre></spoiler>
Приватный:
Нет (DHT включён)
Размер:
238.60 Мб (250,188,513 байт) » файлов: 15
Участники:
0 раздают, 0 качают (0 участников всего)
Внешние участники:
5 раздают, 1 качают (6 участников всего) [ Обновить ]
16:30
45
RSS
Нет комментариев. Ваш будет первым!