Поиск

1966 Nat King Cole - The Unforgettable Nat King Cole Sings The Great Songs {Parlophone} [24-96]

1966 Nat King Cole - The Unforgettable Nat King Cole Sings The Great Songs {Parlophone} [24-96]
Стили:
Издатель (лейбл):
Носитель:
WEB
Формат:
PCM
Тип рипа:
tracks
Контейнер:
FLAC (*.flac)
Количество каналов:
2.0
Разрядность/ЧД:
24/96
Битрейт аудио:
lossless
Время звучания:
00:29:50
Наличие сканов:
только обложка

01 - An Affair To Remember 03:02
02 - You're My Thrill 03:19
03 - Fascination 02:29
04 - Farewell To Arms 02:53
05 - I Wish I Knew 02:20
06 - For The Want Of A Kiss 02:13
07 - There's A Gold Mine In The Sky 02:39
08 - Happy New Year 03:12
09 - Be Still My Heart 02:33
10 - Around The World 02:35
11 - I Had The Craziest Dream 02:35

Состав:
  • Nat King Cole — vocals
  • Gordon Jenkins, Nelson Riddle — Conductors
Лог проверки качества
foobar2000 1.4.6 / Dynamic Range Meter 1.1.1
log date: 2021-10-24 06:36:50
--------------------------------------------------------------------------------
Analyzed: Nat King Cole / The Unforgettable Nat King Cole Sings The Great Songs
--------------------------------------------------------------------------------
DR         Peak         RMS     Duration Track
--------------------------------------------------------------------------------
DR11      -0.30 dB   -13.37 dB      3:03 01-An Affair To Remember (Remastered 2002)
DR8       -0.30 dB   -10.98 dB      3:19 02-You're My Thrill (Remastered 2002)
DR10      -0.30 dB   -12.05 dB      2:29 03-Fascination (Remastered 2002)
DR11      -0.30 dB   -13.23 dB      2:53 04-Farewell To Arms (Remastered 2002)
DR10      -0.30 dB   -13.29 dB      2:20 05-I Wish I Knew (Remastered 2002)
DR9       -0.30 dB   -11.05 dB      2:13 06-For The Want Of A Kiss (Remastered 2002)
DR9       -0.30 dB   -11.51 dB      2:39 07-There's A Gold Mine In The Sky (Remastered 2002)
DR12      -0.31 dB   -14.43 dB      3:12 08-Happy New Year (Remastered)
DR9       -0.30 dB   -11.56 dB      2:34 09-Be Still My Heart (Remastered 2002)
DR10      -0.30 dB   -12.33 dB      2:36 10-Around The World (Remastered)
DR10      -0.30 dB   -12.58 dB      2:35 11-I Had The Craziest Dream (Remastered 2002)
--------------------------------------------------------------------------------
Number of tracks:  11
Official DR value: DR10
Samplerate:        96000 Hz
Channels:          2
Bits per sample:   24
Bitrate:           3136 kbps
Codec:             FLAC
================================================================================
Приватный:
Нет (DHT включён)
Размер:
673.52 Мб (706,237,963 байт) » файлов: 16
Участники:
0 раздают, 1 качают (1 участников всего)
Внешние участники:
7 раздают, 2 качают (9 участников всего) [ Обновить ]
12:46
592
Нет комментариев. Ваш будет первым!