Поиск

1961 June Christy - This Time Of Year (2018) {RevOla} [24-44.1]

1961 June Christy - This Time Of Year (2018) {RevOla} [24-44.1]
Стили:
Издатель (лейбл):
Носитель:
WEB
Формат:
PCM
Тип рипа:
tracks
Контейнер:
FLAC (*.flac)
Количество каналов:
2.0
Разрядность/ЧД:
24/44,1
Битрейт аудио:
lossless
Наличие сканов:
только обложка

01 - Christmas Heart 02:57
02 - Ring a Merry Bell 03:05
03 - Hang Them On the Tree 02:21
04 - The Little Star 03:08
05 - The Merriest 02:09
06 - This Time of Year 03:34
07 - Seven Shades of Snow 03:32
08 - Sorry to See You Go 02:24
09 - The Magic Gift 03:26
10 - Winter's Got Spring Up Its Sleeve 02:36

Состав:
  • June Christy – vocals
  • Frank Beach – trumpet
  • Don Fagerquist – trumpet
  • Dick Nash – trombone
  • Kenny Shroyer – bass trombone
  • Jim Decker – French horn
  • Vincent DeRosa – French horn
  • Richard Perissi – French horn
  • Red Callender – tuba
  • Sam Rice – tuba
  • Bob Cooper – tenor saxophone, bass clarinet, oboe
  • Bud Shank – alto saxophone, flute
  • Paul Horn – flute
  • Ted Nash – flute
  • Victor Arno – violin
  • Israel Baker – violin
  • Robert Barene – violin
  • Anatol Kaminsky – violin
  • Dan Lube – violin
  • Alfred Lustgarten – violin
  • Lou Raderman – violin
  • Albert Steinberg – violin
  • Gerald Vinci – violin
  • Virginia Majewski – viola
  • Ray Mehennick – viola
  • Stanley Harris – viola
  • Edgar Lustgarten – cello
  • Eleanor Slatkin – cello
  • Catherine Gotthoffer – harp
  • Russ Freeman – piano
  • Al Viola – guitar
  • Joe Mondragon – bass
  • Red Mitchell – bass
  • Gene Estes – drums, vibes, celeste, bell
  • Shelly Manne – drums
Лог проверки качества
foobar2000 1.4.3 / Dynamic Range Meter 1.1.1
log date: 2021-12-01 16:33:17
--------------------------------------------------------------------------------
Analyzed: June Christy / This Time Of Year
--------------------------------------------------------------------------------
DR         Peak         RMS     Duration Track
--------------------------------------------------------------------------------
DR11      -3.20 dB   -17.98 dB      2:58 01-Christmas Heart (remastered)
DR14      -1.16 dB   -18.67 dB      3:05 02-Ring a Merry Bell (remastered)
DR14      -1.47 dB   -19.03 dB      2:21 03-Hang Them On the Tree (remastered)
DR13      -1.91 dB   -17.90 dB      3:09 04-The Little Star (remastered)
DR13      -1.64 dB   -17.60 dB      2:10 05-The Merriest (remastered)
DR12      -3.28 dB   -17.90 dB      3:34 06-This Time of Year (remastered)
DR11      -2.40 dB   -17.95 dB      3:32 07-Seven Shades of Snow (remastered)
DR13      -1.49 dB   -18.11 dB      2:24 08-Sorry to See You Go (remastered)
DR12      -4.18 dB   -18.35 dB      3:26 09-The Magic Gift (remastered)
DR12      -2.72 dB   -18.53 dB      2:36 10-Winter's Got Spring Up Its Sleeve (remastered)
--------------------------------------------------------------------------------
Number of tracks:  10
Official DR value: DR13
Samplerate:        44100 Hz
Channels:          2
Bits per sample:   24
Bitrate:           1421 kbps
Codec:             FLAC
================================================================================
Приватный:
Нет (DHT включён)
Размер:
319.71 Мб (335,237,250 байт) » файлов: 15
Участники:
0 раздают, 0 качают (0 участников всего)
Внешние участники:
--- [ Обновить ]
20:45
403
Нет комментариев. Ваш будет первым!