Поиск

1966 Nat Adderley - Sayin' Somethin' (2012) {Warner WPCR-27058} [CD]

1966 Nat Adderley - Sayin' Somethin' (2012) {Warner WPCR-27058} [CD]
Стили:
Издатель (лейбл):
Треклист:
Носитель: CD
Страна-производитель диска: Japan
Год издания: 2012
Издатель (лейбл): Warner Japan/Atlantic/WEA/Rhino
Номер по каталогу: WPCR-27058
Аудиокодек: FLAC (*.flac)
Тип рипа: tracks+.cue
Битрейт аудио: lossless
Продолжительность: 37:04
Rip by ruskaval
Наличие сканов в содержимом раздачи: да
Треклист:
01. Manchild (2:49)
02. Call Me (3:09)
03. Walls Of Jericho (6:56)
04. Gospelette (3:13)
05. Satin Doll (2:43)
06. Cantaloupe Island (7:22)
07. Hippodelphia (3:43)
08. The Other Side (7:09)
 
 
Лог создания рипа
Exact Audio Copy V1.1 from 23. June 2015
EAC extraction logfile from 22. July 2016, 14:55
Nat Adderley / Sayin' Somethin'
Used drive  : HL-DT-STDVDRAM GP50NW41   Adapter: 1  ID: 0
Read mode               : Secure
Utilize accurate stream : Yes
Defeat audio cache      : Yes
Make use of C2 pointers : No
Read offset correction                      : 6
Overread into Lead-In and Lead-Out          : No
Fill up missing offset samples with silence : Yes
Delete leading and trailing silent blocks   : No
Null samples used in CRC calculations       : Yes
Used interface                              : Native Win32 interface for Win NT & 2000
Gap handling                                : Appended to previous track
Used output format              : User Defined Encoder
Selected bitrate                : 1024 kBit/s
Quality                         : High
Add ID3 tag                     : No
Command line compressor         : C:\Program Files (x86)\FLAC Frontend\tools\flac.exe
Additional command line options : -8 -V -T "ARTIST=%artist%" -T "TITLE=%title%" -T "ALBUM=%albumtitle%" -T "DATE=%year%" -T "TRACKNUMBER=%tracknr%" -T "TOTALTRACKS=%numtracks%" -T "GENRE=%genre%" -T "ALBUMARTIST=%albumartist%" -T "ALBUM ARTIST=%albumartist%" -T "COMMENT=EAC Secure Mode, Test & Copy, AccurateRip, FLAC -8" %source%
TOC of the extracted CD
     Track |   Start  |  Length  | Start sector | End sector
    ---------------------------------------------------------
        1  |  0:00.00 |  2:48.71 |         0    |    12670
        2  |  2:48.71 |  3:08.48 |     12671    |    26818
        3  |  5:57.44 |  6:56.17 |     26819    |    58035
        4  | 12:53.61 |  3:13.02 |     58036    |    72512
        5  | 16:06.63 |  2:43.31 |     72513    |    84768
        6  | 18:50.19 |  7:22.15 |     84769    |   117933
        7  | 26:12.34 |  3:42.54 |    117934    |   134637
        8  | 29:55.13 |  7:09.07 |    134638    |   166819
Track  1
     Filename D:\_EAC\Nat Adderley - Sayin' Somethin' (1966) [FLAC] {WPCR-27058}\01 - Manchild.wav
     Pre-gap length  0:00:02.00
     Peak level 99.7 %
     Extraction speed 1.9 X
     Track quality 99.9 %
     Test CRC F962C494
     Copy CRC F962C494
     Track not present in AccurateRip database
     Copy OK
Track  2
     Filename D:\_EAC\Nat Adderley - Sayin' Somethin' (1966) [FLAC] {WPCR-27058}\02 - Call Me.wav
     Pre-gap length  0:00:02.26
     Peak level 100.0 %
     Extraction speed 2.8 X
     Track quality 100.0 %
     Test CRC 0D0E64D9
     Copy CRC 0D0E64D9
     Track not present in AccurateRip database
     Copy OK
Track  3
     Filename D:\_EAC\Nat Adderley - Sayin' Somethin' (1966) [FLAC] {WPCR-27058}\03 - Walls Of Jericho.wav
     Pre-gap length  0:00:02.05
     Peak level 96.3 %
     Extraction speed 3.4 X
     Track quality 100.0 %
     Test CRC B4B7A4EF
     Copy CRC B4B7A4EF
     Track not present in AccurateRip database
     Copy OK
Track  4
     Filename D:\_EAC\Nat Adderley - Sayin' Somethin' (1966) [FLAC] {WPCR-27058}\04 - Gospelette.wav
     Pre-gap length  0:00:01.58
     Peak level 100.0 %
     Extraction speed 3.4 X
     Track quality 100.0 %
     Test CRC 5DD226D6
     Copy CRC 5DD226D6
     Track not present in AccurateRip database
     Copy OK
Track  5
     Filename D:\_EAC\Nat Adderley - Sayin' Somethin' (1966) [FLAC] {WPCR-27058}\05 - Satin Doll.wav
     Pre-gap length  0:00:01.63
     Peak level 100.0 %
     Extraction speed 3.5 X
     Track quality 100.0 %
     Test CRC B35EE2CD
     Copy CRC B35EE2CD
     Track not present in AccurateRip database
     Copy OK
Track  6
     Filename D:\_EAC\Nat Adderley - Sayin' Somethin' (1966) [FLAC] {WPCR-27058}\06 - Cantaloupe Island.wav
     Pre-gap length  0:00:02.00
     Peak level 99.7 %
     Extraction speed 3.8 X
     Track quality 99.9 %
     Test CRC FA16A3B5
     Copy CRC FA16A3B5
     Track not present in AccurateRip database
     Copy OK
Track  7
     Filename D:\_EAC\Nat Adderley - Sayin' Somethin' (1966) [FLAC] {WPCR-27058}\07 - Hippodelphia.wav
     Pre-gap length  0:00:00.34
     Peak level 100.0 %
     Extraction speed 4.2 X
     Track quality 100.0 %
     Test CRC 506BD6E7
     Copy CRC 506BD6E7
     Track not present in AccurateRip database
     Copy OK
Track  8
     Filename D:\_EAC\Nat Adderley - Sayin' Somethin' (1966) [FLAC] {WPCR-27058}\08 - The Other Side.wav
     Pre-gap length  0:00:01.43
     Peak level 100.0 %
     Extraction speed 4.7 X
     Track quality 100.0 %
     Test CRC EB4D614D
     Copy CRC EB4D614D
     Track not present in AccurateRip database
     Copy OK
None of the tracks are present in the AccurateRip database
No errors occurred
End of status report
==== Log checksum 8B308C211A52289DC242FFA8B09166ACE4CCE1A051A2A6062BF05A00A736C899 ====
 
 
Содержание индексной карты (.CUE)
REM GENRE Jazz
REM DATE 1966
REM DISCID 7508B008
REM COMMENT "ExactAudioCopy v1.1"
PERFORMER "Nat Adderley"
TITLE "Sayin' Somethin'"
FILE "01 - Manchild.wav" WAVE
  TRACK 01 AUDIO
    TITLE "Manchild"
    PERFORMER "Nat Adderley"
    INDEX 01 00:00:00
  TRACK 02 AUDIO
    TITLE "Call Me"
    PERFORMER "Nat Adderley"
    INDEX 00 02:46:45
FILE "02 - Call Me.wav" WAVE
    INDEX 01 00:00:00
  TRACK 03 AUDIO
    TITLE "Walls Of Jericho"
    PERFORMER "Nat Adderley"
    INDEX 00 03:06:43
FILE "03 - Walls Of Jericho.wav" WAVE
    INDEX 01 00:00:00
  TRACK 04 AUDIO
    TITLE "Gospelette"
    PERFORMER "Nat Adderley"
    INDEX 00 06:54:34
FILE "04 - Gospelette.wav" WAVE
    INDEX 01 00:00:00
  TRACK 05 AUDIO
    TITLE "Satin Doll"
    PERFORMER "Nat Adderley"
    INDEX 00 03:11:14
FILE "05 - Satin Doll.wav" WAVE
    INDEX 01 00:00:00
  TRACK 06 AUDIO
    TITLE "Cantaloupe Island"
    PERFORMER "Nat Adderley"
    INDEX 00 02:41:31
FILE "06 - Cantaloupe Island.wav" WAVE
    INDEX 01 00:00:00
  TRACK 07 AUDIO
    TITLE "Hippodelphia"
    PERFORMER "Nat Adderley"
    INDEX 00 07:21:56
FILE "07 - Hippodelphia.wav" WAVE
    INDEX 01 00:00:00
  TRACK 08 AUDIO
    TITLE "The Other Side"
    PERFORMER "Nat Adderley"
    INDEX 00 03:41:11
FILE "08 - The Other Side.wav" WAVE
    INDEX 01 00:00:00
Приватный:
Нет (DHT включён)
Размер:
399.03 Мб (418,408,233 байт) » файлов: 22
Участники:
0 раздают, 0 качают (0 участников всего)
Внешние участники:
5 раздают, 1 качают (6 участников всего) [ Обновить ]
No seeders - write a personal message to user M0p94ok. Нет сидеров - пишите личное сообщение пользователю M0p94ok.
12:30
186
Нет комментариев. Ваш будет первым!