Поиск

1966 (1999) Wayne Shorter - Speak No Evil

1966 (1999) Wayne Shorter - Speak No Evil
Страна-производитель диска (релиза):
USA
Дата записи диска:
24 декабря 1964
Дата издания диска:
апрель 1966
Дата переиздания диска:
23 мая 1999
Издатель (лейбл):
Номер по каталогу:
7243 4 99001 2 7
Носитель:
CD
Битрейт аудио:
lossless
Аудиокодек:
FLAC (*.flac)
Тип рипа:
tracks+.cue
Время звучания:
48:51
Наличие сканов:
  • да
Релизёр (источник):
ordo
Состав:
  • Freddie Hubbard — trumpet
  • Wayne Shorter — tenor saxophone, writer
  • Herbie Hancock — piano
  • Ron Carter — bass
  • Elvin Jones — drums
  • Alfred Lion — producer
  • Rudy Van Gelder — recording engineer
  • Reid Miles — cover design, photography
  • Don Heckman — liner notes
01. Witch Hunt 8:07
02. Fee-Fi-Fo-Fum 5:50
03. Dance Cadaverous 6:41
04. Speak No Evil 8:21
05. Infant Eyes 6:50
06. Wild Flower 6:02
07. Dance Cadaverous (Alternate Take) [bonus track] 6:35
Лог создания рипа
Exact Audio Copy V0.99 prebeta 3 from 28. July 2007
Отчёт EAC об извлечении, выполненном 18. ноября 2008, 13:21
Wayne Shorter / Speak No Evil
Дисковод: HL-DT-STDVDRAM GSA-4167B Adapter: 0 ID: 0
Режим чтения : Достоверность
Использование точного потока : Да
Отключение кэша аудио : Да
Использование указателей C2 : Нет
Коррекция смещения при чтении : 667
Способность читать области Lead-in и Lead-out : Нет
Заполнение пропущенных сэмплов тишиной : Да
Удаление блоков с тишиной в начале и конце : Нет
При вычислениях CRC использовались нулевые сэмплы : Да
Интерфейс : Встроенный Win32-интерфейс для Win NT/2000
Обработка зазоров : Добавлено к предыдущему треку
Выходной формат : Пользовательский кодировщик
Выбранный битрейт : 768 kBit/s
Качество : Высокий
Добавление ID3-тэга : Да
Утилита сжатия : C:\Program Files\Exact Audio Copy\Flac\flac.exe
Дополнительные параметры : -8 -V -T "artist=%a" -T "title=%t" -T "album=%g" -T "date=%y" -T "tracknumber=%n" -T "genre=%m" -T "comment=ordo" -5 %s
TOC извлечённого CD
Трек | Старт | Длительность | Начальный сектор | Конечный сектор
---------------------------------------------------------------------
1 | 0:00.00 | 8:11.37 | 0 | 36861
2 | 8:11.37 | 5:54.05 | 36862 | 63416
3 | 14:05.42 | 6:45.69 | 63417 | 93860
4 | 20:51.36 | 8:23.59 | 93861 | 131644
5 | 29:15.20 | 6:54.18 | 131645 | 162712
6 | 36:09.38 | 6:06.73 | 162713 | 190235
7 | 42:16.36 | 6:35.30 | 190236 | 219890
Трек 1
Имя файла G:\Muzlo\JAZZ\BIG JAZZ\RIPER-CUTTER\01 - Witch Hunt.wav
Длина предзазора 0:00:02.00
Пиковый уровень 97.9 %
Качество трека 100.0 %
CRC копии 8FDD94C1
Точное извлечение (достоверность 14) [0EBE8DD4]
Копирование... OK
Трек 2
Имя файла G:\Muzlo\JAZZ\BIG JAZZ\RIPER-CUTTER\02 - Fee-Fi-Fo-Fum.wav
Длина предзазора 0:00:03.74
Пиковый уровень 97.9 %
Качество трека 100.0 %
CRC копии C3C381A4
Точное извлечение (достоверность 14) [5F86242E]
Копирование... OK
Трек 3
Имя файла G:\Muzlo\JAZZ\BIG JAZZ\RIPER-CUTTER\03 - Dance Cadaverous.wav
Длина предзазора 0:00:03.32
Пиковый уровень 97.9 %
Качество трека 100.0 %
CRC копии 739BBB6D
Точное извлечение (достоверность 14) [67ABD243]
Копирование... OK
Трек 4
Имя файла G:\Muzlo\JAZZ\BIG JAZZ\RIPER-CUTTER\04 - Speak No Evil.wav
Длина предзазора 0:00:04.17
Пиковый уровень 97.9 %
Качество трека 100.0 %
CRC копии FD7BC47A
Точное извлечение (достоверность 14) [BE9903BC]
Копирование... OK
Трек 5
Имя файла G:\Muzlo\JAZZ\BIG JAZZ\RIPER-CUTTER\05 - Infant Eyes.wav
Длина предзазора 0:00:02.59
Пиковый уровень 97.9 %
Качество трека 100.0 %
CRC копии C5465B48
Точное извлечение (достоверность 14) [9BED7AC6]
Копирование... OK
Трек 6
Имя файла G:\Muzlo\JAZZ\BIG JAZZ\RIPER-CUTTER\06 - Wild Flower.wav
Длина предзазора 0:00:03.51
Пиковый уровень 97.9 %
Качество трека 100.0 %
CRC копии BEE1BA3E
Точное извлечение (достоверность 14) [4B7C8428]
Копирование... OK
Трек 7
Имя файла G:\Muzlo\JAZZ\BIG JAZZ\RIPER-CUTTER\07 - Dance Cadaverous (alternate take).wav
Длина предзазора 0:00:04.72
Пиковый уровень 97.9 %
Качество трека 100.0 %
CRC копии 2D9DE965
Точное извлечение (достоверность 14) [80726571]
Копирование... OK
Все треки извлечены точно
Ошибок не произошло
Конец отчёта
Приватный:
Нет (DHT включён)
Размер:
304.15 Мб (318,923,919 байт) » файлов: 20
Участники:
0 раздают, 0 качают (0 участников всего)
Внешние участники:
2 раздают, 1 качают (3 участников всего) [ Обновить ]
17:01
189
RSS
Нет комментариев. Ваш будет первым!