Поиск

1965 (1997) Wes Montgomery - Bumpin' {Verve 539 062-2}

1965 (1997) Wes Montgomery - Bumpin' {Verve 539 062-2}
Страна-производитель диска (релиза):
Russia
Дата записи диска:
16-20 мая 1965
Дата издания диска:
1997
Дата переиздания диска:
1999
Издатель (лейбл):
Номер по каталогу:
539 062-2
Носитель:
CD
Битрейт аудио:
lossless
Аудиокодек:
APE (*.ape)
Тип рипа:
image+.cue
Время звучания:
31:14
Наличие сканов:
  • да
Релизёр (источник):
Bonfa_UA

Треклист:

01. Bumpin' 4:49
02. Tear It Down 3:13
03. A Quiet Thing 3:29
04. Con Alma 3:22
05. The Shadow Of Your Smile - (from "The Sandpiper") 2:17
06. Mi Cosa 3:19
07. Here's That Rainy Day 4:57
08. Musty 4:13
09. Just Walkin' - (bonus track) 2:57
10. My One And Only Love - (bonus track) 4:07
11. Just Walkin' - (bonus track) 3:37

Состав:
  • Margaret Ross Harp
  • Creed Taylor Producer
  • Charles McCracken Cello
  • Rudy Van Gelder Engineer
  • Hélcio Milito, Grady Tate Drums
  • Candido Camero Bongos, Congas
  • Wes Montgomery Composer, Guitar
  • David Schwartz, Harold Coletta Viola
  • Don Sebesky Arranger, Composer, Conductor
  • Bob Cranshaw BassGeorge Ricci Cello, Violin
  • Arnold Eidus, Lewis Eley, Paul Gershman, Louis Haber, Julius Held, Harry Lookofsky, Joseph Malignaggi, Gene Orloff, Sol Shapiro Violin

Записано в 

  • Van Gelder Studios, Englewood Cliffs, NJ
Лог создания рипа
Exact Audio Copy V0.99 prebeta 1 from 25. May 2007
Отчёт EAC об извлечении, выполненном 11. марта 2008, 17:01
Wes Montgomery / Bumpin' [Verve Master Edition]
Дисковод: _NEC DVD_RW ND-4570A Adapter: 1 ID: 0
Режим чтения : Достоверность
Использование точного потока : Да
Отключение кэша аудио : Да
Использование указателей C2 : Нет
Коррекция смещения при чтении : 48
Способность читать области Lead-in и Lead-out : Да
Заполнение пропущенных сэмплов тишиной : Да
Удаление блоков с тишиной в начале и конце : Нет
Интерфейс : Встроенный Win32-интерфейс для Win NT/2000
Выходной формат : Внутренние WAV-операции
Формат сэмплов : 44.100 Гц; 16 бит; стерео
TOC извлечённого CD
Трек | Старт | Длительность | Начальный сектор | Конечный сектор
---------------------------------------------------------------------
1 | 0:00.00 | 6:51.15 | 0 | 30839
2 | 6:51.15 | 3:15.55 | 30840 | 45519
3 | 10:06.70 | 3:30.52 | 45520 | 61321
4 | 13:37.47 | 3:24.58 | 61322 | 76679
5 | 17:02.30 | 2:19.32 | 76680 | 87136
6 | 19:21.62 | 3:22.48 | 87137 | 102334
7 | 22:44.35 | 4:59.67 | 102335 | 124826
8 | 27:44.27 | 4:22.63 | 124827 | 144539
9 | 32:07.15 | 3:00.40 | 144540 | 158079
10 | 35:07.55 | 4:09.37 | 158080 | 176791
11 | 39:17.17 | 3:37.18 | 176792 | 193084
Характеристики диапазона извлечения и сообщения об ошибках
Выбранный диапазон
Имя файла D:\Муз\Torrents\Wes Montgomery - Bumpin' [Verve Master Edition].wav
Пиковый уровень 87.7 %
Качество диапазона 99.9 %
CRC теста 71139447
CRC копии 71139447
Копирование... OK
Ошибок не произошло
Конец отчёта
Приватный:
Нет (DHT включён)
Размер:
237.86 Мб (249,409,890 байт) » файлов: 7
Участники:
0 раздают, 0 качают (0 участников всего)
Внешние участники:
2 раздают, 1 качают (3 участников всего) [ Обновить ]
20:49
48
RSS
Нет комментариев. Ваш будет первым!