Поиск

1964 Herb Alpert's Tijuana Brass - South of the Border (2015) {Herb Alpert} [24-44.1]

1964 Herb Alpert's Tijuana Brass - South of the Border (2015) {Herb Alpert} [24-44.1]
Место записи:
Gold Star Recording Studios, Hollywood, California, USA
Дата издания диска:
1 октября 1964
Носитель:
WEB
Формат:
PCM
Тип рипа:
tracks
Контейнер:
FLAC (*.flac)
Количество каналов:
2.0
Разрядность/ЧД:
24/44,1
Битрейт аудио:
lossless
Наличие сканов:
только обложка

Треклист:

01 - South of the Border (02:08)
02 - The Girl from Ipanema (02:36)
03 - Hello, Dolly! (01:55)
04 - I've Grown Accustomed to Her Face (02:26)
05 - Up Cherry Street (02:15)
06 - Mexican Shuffle (02:12)
07 - El Presidente (02:40)
08 - All My Loving (01:54)
09 - Angelito (02:22)
10 - Salud, Amor y Dinero (Health, Love and Money) (02:07)
11 - Numero Cinco (Number Five) (02:19)
12 - Adios, Mi Corazon (Goodbye, My Heart) (02:41)

Состав:
  • Engineer – Larry Levine
  • Producer – Jerry Moss
  • Producer, Arranged By – Herb Alpert
Лог проверки качества
foobar2000 1.4.2 / Dynamic Range Meter 1.1.1
log date: 2021-06-09 08:18:37

--------------------------------------------------------------------------------
Analyzed: Herb Alpert's Tijuana Brass / South of the Border
--------------------------------------------------------------------------------

DR         Peak         RMS     Duration Track
--------------------------------------------------------------------------------
DR11      -0.50 dB   -13.54 dB      2:08 01-South of the Border
DR15      -0.58 dB   -17.87 dB      2:37 02-The Girl from Ipanema
DR13      -0.50 dB   -15.10 dB      1:55 03-Hello, Dolly!
DR12      -0.65 dB   -16.82 dB      2:26 04-I've Grown Accustomed to Her Face
DR12      -0.50 dB   -14.83 dB      2:16 05-Up Cherry Street
DR11      -0.50 dB   -13.83 dB      2:13 06-Mexican Shuffle
DR11      -0.50 dB   -14.05 dB      2:41 07-El Presidente
DR12      -0.50 dB   -14.57 dB      1:55 08-All My Loving
DR12      -0.50 dB   -14.53 dB      2:22 09-Angelito
DR12      -0.50 dB   -15.20 dB      2:07 10-Salud, Amor y Dinero (Health, Love and Money)
DR12      -0.50 dB   -14.92 dB      2:20 11-NГєmero Cinco (Number Five)
DR12      -0.66 dB   -15.57 dB      2:42 12-AdiГіs, Mi CorazГіn (Goodbye, My Heart)
--------------------------------------------------------------------------------

Number of tracks:  12
Official DR value: DR12

Samplerate:        44100 Hz
Channels:          2
Bits per sample:   24
Bitrate:           1483 kbps
Codec:             FLAC
================================================================================
По всем вопросам пишите личное сообщение пользователю M0p94ok.
16:19
236
Нет комментариев. Ваш будет первым!