Поиск

1962 Herb Alpert & Tijuana Brass - The Lonely Bull (2015) {Herb Alpert} [24-44.1]

1962 Herb Alpert & Tijuana Brass - The Lonely Bull (2015) {Herb Alpert} [24-44.1]
Место записи:
Conway Recording Studios, Hollywood, CA
Дата издания диска:
1 декабря 1962
Носитель:
WEB
Формат:
PCM
Тип рипа:
tracks
Контейнер:
FLAC (*.flac)
Количество каналов:
2.0
Разрядность/ЧД:
24/44,1
Битрейт аудио:
lossless
Наличие сканов:
только обложка

Треклист:

01 - The Lonely Bull (El Solo Toro) (02:16)
02 - El Lobo (The Wolf) (03:00)
03 - Tijuana Sauerkraut (02:47)
04 - Desafinado (03:49)
05 - Mexico (02:36)
06 - Never on Sunday (02:40)
07 - Struttin' with Maria (02:12)
08 - Let It Be Me (02:59)
09 - Acapulco 1922 (02:40)
10 - Limbo Rock (02:07)
11 - Crawfish (02:24)
12 - A Quiet Tear (02:22)

Состав:
  • Engineer – Charles Underwood
  • Mastered By – Ami Hadani
  • Producer – Herb Alpert, Jerry Moss
  • Remastered By – Bernie Grundman
  • Herb Alpert — Trumpet
Лог проверки качества
foobar2000 1.4.2 / Dynamic Range Meter 1.1.1
log date: 2021-06-09 08:18:50

--------------------------------------------------------------------------------
Analyzed: Herb Alpert's Tijuana Brass / The Lonely Bull
--------------------------------------------------------------------------------

DR         Peak         RMS     Duration Track
--------------------------------------------------------------------------------
DR10      -1.28 dB   -13.80 dB      2:16 01-The Lonely Bull (El Solo Toro)
DR11      -1.80 dB   -16.30 dB      3:01 02-El Lobo (The Wolf)
DR11      -1.32 dB   -15.89 dB      2:47 03-Tijuana Sauerkraut
DR12      -1.65 dB   -17.33 dB      3:50 04-Desafinado
DR12      -1.02 dB   -16.11 dB      2:36 05-Mexico
DR11      -1.20 dB   -15.94 dB      2:41 06-Never on Sunday
DR11      -0.50 dB   -13.91 dB      2:12 07-Struttin' with Maria
DR12      -0.77 dB   -16.93 dB      3:00 08-Let It Be Me
DR12      -1.05 dB   -16.65 dB      2:41 09-Acapulco 1922
DR11      -0.50 dB   -12.84 dB      2:08 10-Limbo Rock
DR13      -0.86 dB   -16.97 dB      2:25 11-Crawfish
DR10      -0.67 dB   -13.96 dB      2:22 12-A Quiet Tear
--------------------------------------------------------------------------------

Number of tracks:  12
Official DR value: DR11

Samplerate:        44100 Hz
Channels:          2
Bits per sample:   24
Bitrate:           1572 kbps
Codec:             FLAC
================================================================================
По всем вопросам пишите личное сообщение пользователю M0p94ok.
17:30
280
Нет комментариев. Ваш будет первым!