Поиск

1964 (1999) Wayne Shorter - Juju {Blue Note 7243 4 99005 2 3}

1964 (1999) Wayne Shorter - Juju {Blue Note 7243 4 99005 2 3}
Страна-производитель диска (релиза):
USA
Дата издания диска:
1964
Дата переиздания диска:
18 мая 1999
Издатель (лейбл):
Номер по каталогу:
7243 4 99005 2 3
Носитель:
CD
Битрейт аудио:
lossless
Аудиокодек:
FLAC (*.flac)
Тип рипа:
tracks+.cue
Время звучания:
56:12
Наличие сканов:
  • да
Релизёр (источник):
ordo

Треклист:

01. JuJu 8:30
02. Deluge 6:49
03. House of Jade 6:49
04. Mahjong 7:39
05. Yes or No 6.34
06. Twelve More Bars to Go 5:26
Alternative takes on reissue: 07. JuJu 7:48
08. House of Jade 6:37

Состав:
  • Wayne Shorter — tenor saxophone, composer
  • McCoy Tyner — piano
  • Reginald Workman — bass
  • Elvin Jones — drums
  • Alfred Lion — producer
  • Rudy Van Gelder — engineer
  • Reid Miles — cover design, photography
  • Nat Hentoff — liner notes
Лог создания рипа
Exact Audio Copy V0.99 prebeta 4 from 23. January 2008
EAC extraction logfile from 5. August 2009, 7:35
Wayne Shorter / Juju
Used drive : HL-DT-STDVDRAM GH22NS40 Adapter: 2 ID: 0
Read mode : Secure
Utilize accurate stream : Yes
Defeat audio cache : Yes
Make use of C2 pointers : No
Read offset correction : 667
Overread into Lead-In and Lead-Out : No
Fill up missing offset samples with silence : Yes
Delete leading and trailing silent blocks : No
Null samples used in CRC calculations : Yes
Used interface : Native Win32 interface for Win NT & 2000
Gap handling : Appended to previous track
Used output format : User Defined Encoder
Selected bitrate : 128 kBit/s
Quality : High
Add ID3 tag : No
Command line compressor : C:\Program Files (x86)\Exact Audio Copy\Flac\flac.exe
Additional command line options : -8 -V -T "ARTIST=%a" -T "TITLE=%t" -T "ALBUM=%g" -T "DATE=%y" -T "TRACKNUMBER=%n" -T "GENRE=%m" -T "COMMENT=EAC FLAC -8" %s
TOC of the extracted CD
Track | Start | Length | Start sector | End sector
---------------------------------------------------------
1 | 0:00.00 | 8:31.00 | 0 | 38324
2 | 8:31.00 | 6:51.69 | 38325 | 69218
3 | 15:22.69 | 6:52.68 | 69219 | 100186
4 | 22:15.62 | 7:43.08 | 100187 | 134919
5 | 29:58.70 | 6:37.70 | 134920 | 164764
6 | 36:36.65 | 5:30.53 | 164765 | 189567
7 | 42:07.43 | 7:53.10 | 189568 | 225052
8 | 50:00.53 | 6:38.42 | 225053 | 254944
Track 1
Filename E:\RIP\Wayne Shorter - JUJU - 1964 {RVG Edition}\01 - Juju.wav
Pre-gap length 0:00:02.00
Peak level 97.5 %
Track quality 100.0 %
Test CRC 76E637C1
Copy CRC 76E637C1
Accurately ripped (confidence 23) [8B412D0A]
Copy OK
Track 2
Filename E:\RIP\Wayne Shorter - JUJU - 1964 {RVG Edition}\02 - Deluge.wav
Pre-gap length 0:00:02.58
Peak level 97.9 %
Track quality 99.9 %
Test CRC 50A00B63
Copy CRC 50A00B63
Accurately ripped (confidence 23) [77A0BFBB]
Copy OK
Track 3
Filename E:\RIP\Wayne Shorter - JUJU - 1964 {RVG Edition}\03 - House of Jade.wav
Pre-gap length 0:00:03.05
Peak level 81.5 %
Track quality 100.0 %
Test CRC 23B21D8B
Copy CRC 23B21D8B
Accurately ripped (confidence 23) [4E7988D3]
Copy OK
Track 4
Filename E:\RIP\Wayne Shorter - JUJU - 1964 {RVG Edition}\04 - Mahjong.wav
Pre-gap length 0:00:03.37
Peak level 90.1 %
Track quality 100.0 %
Test CRC 147E1B67
Copy CRC 147E1B67
Accurately ripped (confidence 23) [6C548EB7]
Copy OK
Track 5
Filename E:\RIP\Wayne Shorter - JUJU - 1964 {RVG Edition}\05 - Yes or No.wav
Pre-gap length 0:00:03.18
Peak level 91.3 %
Track quality 100.0 %
Test CRC 6455A7D5
Copy CRC 6455A7D5
Accurately ripped (confidence 23) [36461515]
Copy OK
Track 6
Filename E:\RIP\Wayne Shorter - JUJU - 1964 {RVG Edition}\06 - Twelve More Bars To Go.wav
Pre-gap length 0:00:03.42
Peak level 97.3 %
Track quality 99.9 %
Test CRC 54AD197A
Copy CRC 54AD197A
Accurately ripped (confidence 23) [E93C692B]
Copy OK
Track 7
Filename E:\RIP\Wayne Shorter - JUJU - 1964 {RVG Edition}\07 - Juju (alt take).wav
Pre-gap length 0:00:03.86
Peak level 80.6 %
Track quality 100.0 %
Test CRC DA7A114C
Copy CRC DA7A114C
Accurately ripped (confidence 22) [8DC7B57A]
Copy OK
Track 8
Filename E:\RIP\Wayne Shorter - JUJU - 1964 {RVG Edition}\08 - House of Jade (alt take).wav
Pre-gap length 0:00:02.82
Peak level 79.8 %
Track quality 100.0 %
Test CRC 58F8F5D2
Copy CRC 58F8F5D2
Accurately ripped (confidence 22) [8885FB5F]
Copy OK
All tracks accurately ripped
No errors occurred
End of status report
Приватный:
Нет (DHT включён)
Размер:
371.66 Мб (389,709,938 байт) » файлов: 21
Участники:
0 раздают, 0 качают (0 участников всего)
Внешние участники:
5 раздают, 1 качают (6 участников всего) [ Обновить ]
09:52
145
RSS
Нет комментариев. Ваш будет первым!