Поиск

1960 (2002) Donald Byrd - Byrd In Hand (RVG Edition) {Blue Note 7243 5 42305 2 3}

1960 (2002) Donald Byrd - Byrd In Hand (RVG Edition) {Blue Note 7243 5 42305 2 3}
Страна-производитель диска (релиза):
USA
Дата записи диска:
31 мая 1959
Дата издания диска:
январь 1960
Дата переиздания диска:
2002
Номер по каталогу:
7243 5 42305 2 3
Носитель:
CD
Битрейт аудио:
lossless
Аудиокодек:
FLAC (*.flac)
Тип рипа:
tracks+.cue
Время звучания:
40:11
Наличие сканов:
  • да
Релизёр (источник):
ordo
Треклист:

01. Witchcraft 8:29
02. Here Am I 8:25
03. Devil Whip 4:42
04. Bronze Dance 6:42
05. Clarion Calls 5:41
06. The Injuns 6:13

Состав:


Recorded at the Van Gelder Studio, Englewood Cliffs, New Jersey on May 31, 1959. Includes liner notes by Ira Gitler and Bob Blumenthal.
All tracks have been digitally remastered in 2002 by Rudy Van Gelder

EAC extraction logfile from 21. August 2009, 2:07 for CD
Donald Byrd / Byrd In Hand
Used drive : HL-DT-STDVDRAM GH22NS40 Adapter: 2 ID: 0
Read mode : Secure with NO C2, accurate stream, disable cache
Read offset correction : 667
Overread into Lead-In and Lead-Out : No
Used output format : C:\Program Files (x86)\Exact Audio Copy\Flac\flac.exe (User Defined Encoder) 128 kBit/s Additional command line options : -8 -V -T "ARTIST=%a" -T "TITLE=%t" -T "ALBUM=%g" -T "DATE=%y" -T "TRACKNUMBER=%n" -T "GENRE=%m" -T "COMMENT=EAC FLAC -8" %s
Other options : Fill up missing offset samples with silence : Yes Delete leading and trailing silent blocks : No Native Win32 interface for Win NT & 2000
Track 1 Filename E:\RIP\Donald Byrd - Byrd In Hand - 1959 {RVG Edition}\01. Witchcraft.wav Pre-gap length 0:00:02.00 Peak level 97.9 % Track quality 99.9 % Test CRC 012CFA1A Copy CRC 012CFA1A Copy OK
Track 2 Filename E:\RIP\Donald Byrd - Byrd In Hand - 1959 {RVG Edition}\02. Here Am I.wav Pre-gap length 0:00:02.54 Peak level 97.9 % Track quality 100.0 % Test CRC B2FE4BB3 Copy CRC B2FE4BB3 Copy OK
Track 3 Filename E:\RIP\Donald Byrd - Byrd In Hand - 1959 {RVG Edition}\03. Devil Whip.wav Pre-gap length 0:00:01.16 Peak level 97.9 % Track quality 99.9 % Test CRC D58C20DF Copy CRC D58C20DF Copy OK
Track 4 Filename E:\RIP\Donald Byrd - Byrd In Hand - 1959 {RVG Edition}\04. Bronze Dance.wav Pre-gap length 0:00:02.89 Peak level 97.9 % Track quality 100.0 % Test CRC B161B84F Copy CRC B161B84F Copy OK
Track 5 Filename E:\RIP\Donald Byrd - Byrd In Hand - 1959 {RVG Edition}\05. Clarion Calls.wav Pre-gap length 0:00:02.78 Peak level 97.9 % Track quality 100.0 % Test CRC A95B950F Copy CRC A95B950F Copy OK
Track 6 Filename E:\RIP\Donald Byrd - Byrd In Hand - 1959 {RVG Edition}\06. The Injuns.wav Pre-gap length 0:00:02.32 Peak level 97.9 % Track quality 100.0 % Test CRC B5CE5168 Copy CRC B5CE5168 Copy OK
No errors occured
End of status report
REM GENRE Jazz
REM DATE 1959
REM DISCID 36096B06
REM COMMENT "ExactAudioCopy v0.95b3"
PERFORMER "Donald Byrd"
TITLE "Byrd In Hand"
FILE "01. Witchcraft.wav" WAVE TRACK 01 AUDIO TITLE "Witchcraft" PERFORMER "Donald Byrd" INDEX 01 00:00:00 TRACK 02 AUDIO TITLE "Here Am I" PERFORMER "Donald Byrd" INDEX 00 08:26:62
FILE "02. Here Am I.wav" WAVE INDEX 01 00:00:00 TRACK 03 AUDIO TITLE "Devil Whip" PERFORMER "Donald Byrd" INDEX 00 08:23:69
FILE "03. Devil Whip.wav" WAVE INDEX 01 00:00:00 TRACK 04 AUDIO TITLE "Bronze Dance" PERFORMER "Donald Byrd" INDEX 00 04:39:24
FILE "04. Bronze Dance.wav" WAVE INDEX 01 00:00:00 TRACK 05 AUDIO TITLE "Clarion Calls" PERFORMER "Donald Byrd" INDEX 00 06:39:57
FILE "05. Clarion Calls.wav" WAVE INDEX 01 00:00:00 TRACK 06 AUDIO TITLE "The Injuns" PERFORMER "Donald Byrd" INDEX 00 05:38:62
FILE "06. The Injuns.wav" WAVE INDEX 01 00:00:00
Приватный:
Нет (DHT включён)
Размер:
269.85 Мб (282,962,762 байт) » файлов: 17
Участники:
0 раздают, 0 качают (0 участников всего)
Внешние участники:
2 раздают, 1 качают (3 участников всего) [ Обновить ]
Скорость:
Торрент не зарегистрирован на трекере
03:16
129
RSS
Нет комментариев. Ваш будет первым!