Поиск

1964 (1999) Bobby Timmons - From the Bottom

1964 (1999) Bobby Timmons - From the Bottom
Стили:
Страна-производитель диска (релиза):
Germany
Дата издания диска:
1964
Дата переиздания диска:
1999
Издатель (лейбл):
Номер по каталогу:
OJCCD-1032-2
Носитель:
CD
Битрейт аудио:
lossless
Аудиокодек:
FLAC (*.flac)
Тип рипа:
tracks+.cue
Время звучания:
33:06
Наличие сканов:
  • да
Релизёр (источник):
mironov_ad
Состав:
  • Jimmy Cobb Drums
  • Sam Jones Bass
  • Orrin Keepnews Liner Notes, Producer
  • Bobby Timmons Composer, Organ, Piano, Vibraphone


Записано в 1964 году на Riverside, оцифровано на Fantasy Studios в 1999 году.

01. From the Bottom (Timmons) 4:59
02. Corcovado (Quiet Nights of Quiet Stars) (Jobim) 4:17
03. Medley: You're Blase/Bewitched (Hamilton, Hart, Rodgers, Sievier) 3:37
04. If I Should Lose You (Rainger, Robin) 4:51
05. Samba Triste (Blanco, Powell) 3:19
06. Someone to Watch over Me (Gershwin, Gershwin) 6:31
07. Moanin' (Timmons) 5:31

Лог создания рипа
EAC extraction logfile from 31. January 2007, 3:13 for CD
Boby Timmons / From The Bottom
Used drive : HL-DT-STDVDRAM GSA-4163B Adapter: 1 ID: 1
Read mode : Secure with NO C2, accurate stream, disable cache
Read offset correction : 667
Overread into Lead-In and Lead-Out : No
Used output format : Internal WAV Routines
44.100 Hz; 16 Bit; Stereo
Other options :
Fill up missing offset samples with silence : Yes
Delete leading and trailing silent blocks : No
Installed external ASPI interface
Track 1
Filename D:\Bobby Timmons - From The Bottom (1964)[FLAC]{OJC}\01 - From The Bottom.wav
Pre-gap length 0:00:02.00
Peak level 100.0 %
Track quality 100.0 %
Test CRC 0D13A448
Copy CRC 0D13A448
Copy OK
Track 2
Filename D:\Bobby Timmons - From The Bottom (1964)[FLAC]{OJC}\02 - Corcovado (Quiet Nights Of Quiet stars.wav
Pre-gap length 0:00:02.26
Peak level 99.6 %
Track quality 100.0 %
Test CRC 61DD2A18
Copy CRC 61DD2A18
Copy OK
Track 3
Filename D:\Bobby Timmons - From The Bottom (1964)[FLAC]{OJC}\03 - Medley- You're Blase,Bewitched.wav
Pre-gap length 0:00:02.32
Peak level 96.3 %
Track quality 99.9 %
Test CRC 72BEE835
Copy CRC 72BEE835
Copy OK
Track 4
Filename D:\Bobby Timmons - From The Bottom (1964)[FLAC]{OJC}\04 - If I Should Lose You.wav
Pre-gap length 0:00:02.29
Peak level 100.0 %
Track quality 100.0 %
Test CRC 5370F3CD
Copy CRC 5370F3CD
Copy OK
Track 5
Filename D:\Bobby Timmons - From The Bottom (1964)[FLAC]{OJC}\05 - Samba Triste.wav
Pre-gap length 0:00:02.47
Peak level 99.9 %
Track quality 100.0 %
Test CRC 75998AF4
Copy CRC 75998AF4
Copy OK
Track 6
Filename D:\Bobby Timmons - From The Bottom (1964)[FLAC]{OJC}\06 - Someone To Watch Over Me.wav
Pre-gap length 0:00:02.66
Peak level 99.9 %
Track quality 100.0 %
Test CRC 2B3DC493
Copy CRC 2B3DC493
Copy OK
Track 7
Filename D:\Bobby Timmons - From The Bottom (1964)[FLAC]{OJC}\07 - Moanin'.wav
Pre-gap length 0:00:02.37
Peak level 99.9 %
Track quality 100.0 %
Test CRC 28EBB058
Copy CRC 28EBB058
Copy OK
No errors occured
End of status report
Приватный:
Нет (DHT включён)
Размер:
199.58 Мб (209,279,770 байт) » файлов: 14
Участники:
4 раздают, 2 качают (6 участников всего)
Внешние участники:
5 раздают, 1 качают (6 участников всего) [ Обновить ]
13:11
98
RSS
Нет комментариев. Ваш будет первым!