Поиск

1964 (1994) Ike Quebec - It Might As Well Be Spring

1964 (1994) Ike Quebec - It Might As Well Be Spring
Страна-производитель диска (релиза):
USA
Дата записи диска:
9 декабря 1961
Дата издания диска:
июль 1964
Дата переиздания диска:
27 апреля 1994
Издатель (лейбл):
Номер по каталогу:
TOCJ-4105
Носитель:
CD
Битрейт аудио:
lossless
Аудиокодек:
APE (*.ape)
Тип рипа:
image+.cue
Время звучания:
35:49
Наличие сканов:
  • нет
Релизёр (источник):
big1bug
Состав:
  • Michael Cuscuna Reissue Producer
  • Al Harewood Drums
  • Nat Hentoff Liner Notes
  • Milt Hinton Bass
  • Alfred Lion Producer
  • Ike Quebec Composer, Sax (Tenor)
  • Freddie Roach Organ
  • Rudy Van Gelder Digital Remastering, Engineer

01. It Might As Well Be Spring (6:16)
02. A Light Reprieve (5:19)
03. Easy - Don't Hurt (6:04)
04. Lover Man (5:53)
05. Ol' Man River (6:31)
06. Willow Weep for Me (5:19)

Лог создания рипа
<spoiler title="Лог создания рипа">Отчёт EAC об извлечении, выполненном 14. января 2003, 21:39 для диска:
Ike Quebec / it might as well be spring
Дисковод: ASUS DVD-E616P2 Adapter: 1 ID: 1
Режим чтения: Достоверный (C2: да, Точный поток: да, Отключение кэша: да)
Коррекция смещения при чтении: 738
Способность читать области Lead-in и Lead-out : Нет
Выходной формат: Внутренние WAV-операции
44.100 Гц; 16 бит; стерео
Другие параметры:
Заполнение пропущенных сэмплов тишиной : Да
Удаление блоков с тишиной в начале и конце : Нет
Установленный внешний ASPI-интерфейс
Характеристики диапазона извлечения и сообщения об ошибках
Выбранный диапазон
Имя файла E:\Ike Quebec - it might as well be spring.wav
Пиковый уровень 97.9 %
Качество диапазона 100.0 %
CRC 9F7D2EBE
Копирование... OK
Ошибок не произошло
Конец отчёта</spoiler>
Содержание индексной карты (.CUE)
<spoiler title="Содержание индексной карты (.CUE)">REM GENRE Jazz
REM DATE 1961
PERFORMER "Ike Quebec"
TITLE "It Might As Well Be Spring"
FILE "Ike Quebec - it might as well be spring.ape" WAVE TRACK 01 AUDIO TITLE "It Might As Well Be Spring" INDEX 01 00:00:00 TRACK 02 AUDIO TITLE "A Light Reprieve" INDEX 00 06:16:01 INDEX 01 06:19:08 TRACK 03 AUDIO TITLE "Easy - Don't Hurt" INDEX 00 11:38:65 INDEX 01 11:40:46 TRACK 04 AUDIO TITLE "Lover Man" INDEX 00 17:44:46 INDEX 01 17:46:66 TRACK 05 AUDIO TITLE "Ol' Man River" INDEX 00 23:40:23 INDEX 01 23:42:67 TRACK 06 AUDIO TITLE "Willow Weep For Me" INDEX 00 30:13:74 INDEX 01 30:16:15</spoiler>
Скачивание доступно после регистрации!!
Приватный:
Нет (DHT включён)
Размер:
182.21 Мб (191,060,915 байт) » файлов: 3
Участники:
3 раздают, 1 качают (4 участников всего)
Внешние участники:
5 раздают, 1 качают (6 участников всего) [ Обновить ]
00:37
108
RSS
Нет комментариев. Ваш будет первым!