Поиск

1964-1966 (2002) Oscar Peterson Trio - Paris Jazz Concert Set 2 (2CD) {Delta 17431, 17432}

1964-1966 (2002) Oscar Peterson Trio - Paris Jazz Concert Set 2 (2CD) {Delta 17431, 17432}
Страна-производитель диска (релиза):
France
Дата записи диска:
25 апреля 1964 - 29 марта 1966
Дата издания диска:
2002
Номер по каталогу:
17431, 17432
Носитель:
CD
Битрейт аудио:
lossless
Аудиокодек:
FLAC (*.flac)
Тип рипа:
tracks
Время звучания:
68:34 + 60:06
Наличие сканов:
  • да
Релизёр (источник):
JanV
Треклист:
CD 1
01. I could write a book 4:04
02. Jordu 5:13
03. Bye bye blackbird 6:43
04. Jeru 5:52
05. Illwind 6:06
06. Soon 3:43
07. Hallelujah trail 7:05
08. Yesterdays 4:52
09. Keyboard blues 5:20
10. Lil darlin' 6:43
11. Tangerine 4:53
12. My foolish heart 7:44
CD 2
01. Mack the knife 6:43
02. Blues for smedley 5:32
03. Misty 5:50
04. Mumbles 1:52
05. Blues etude 5:43
06. You look good to me 7:30
07. Stella by starlight 4:46
08. Moanin' 6:24
09. Shelley's word 9:03
10. Autumn leaves 6:35
Состав:
CD 01

rec.: April 25th & 26th, 1964 — Théâtre des Champs-Elysees (##1-8)
Marth 20th, 1965 — Théâtre des Champs-Elysees (##9-12)
CD 02

rec.: Marth 20th, 1965 — Théâtre des Champs-Elysees (##1-4)
Marth 29th, 1966 — Plyeyl (##5-10)
Лог создания рипа
<spoiler title="Логи создания рипа"><spoiler title="CD 01"><pre>Отчёт EAC об извлечении, выполненном 27. декабря 2007, 20:51 для диска:
Oscar Peterson / Oscar Peterson in Paris 1964 - 1965
Дисковод: TSSTcorpCDDVDW SH-S203D Adapter: 2 ID: 1
Режим чтения: Достоверный (C2: нет, Точный поток: да, Отключение кэша: да)
Коррекция смещения при чтении: 0
Способность читать области Lead-in и Lead-out : Нет
Выходной формат: Внутренние WAV-операции
44.100 Гц; 16 бит; стерео
Другие параметры:
Заполнение пропущенных сэмплов тишиной : Да
Удаление блоков с тишиной в начале и конце : Нет
Встроенный Win32-интерфейс для Win NT/2000
Трек 1
Имя файла C:\Documents and Settings\EACtemp\(01) I Could Write a Book - Oscar Peterson.wav
Пиковый уровень 94.5 %
Качество трека 100.0 %
CRC теста C6DFEB4B
CRC копии C6DFEB4B
Копирование... OK
Трек 2
Имя файла C:\Documents and Settings\EACtemp\(02) Jordu - Oscar Peterson.wav
Пиковый уровень 83.8 %
Качество трека 100.0 %
CRC теста 9865AC6A
CRC копии 9865AC6A
Копирование... OK
Трек 3
Имя файла C:\Documents and Settings\EACtemp\(03) Bye Bye Blackbird - Oscar Peterson.wav
Пиковый уровень 74.5 %
Качество трека 100.0 %
CRC теста 4C4AFB04
CRC копии 4C4AFB04
Копирование... OK
Трек 4
Имя файла C:\Documents and Settings\EACtemp\(04) Jeru - Oscar Peterson.wav
Пиковый уровень 99.0 %
Качество трека 100.0 %
CRC теста 6718874A
CRC копии 6718874A
Копирование... OK
Трек 5
Имя файла C:\Documents and Settings\EACtemp\(05) Illwind - Oscar Peterson.wav
Пиковый уровень 96.9 %
Качество трека 100.0 %
CRC теста 9C6A0136
CRC копии 9C6A0136
Копирование... OK
Трек 6
Имя файла C:\Documents and Settings\EACtemp\(06) Soon - Oscar Peterson.wav
Пиковый уровень 81.3 %
Качество трека 100.0 %
CRC теста 83663B55
CRC копии 83663B55
Копирование... OK
Трек 7
Имя файла C:\Documents and Settings\EACtemp\(07) Hallelujah Trail - Oscar Peterson.wav
Пиковый уровень 100.0 %
Качество трека 100.0 %
CRC теста AD0C0D06
CRC копии AD0C0D06
Копирование... OK
Трек 8
Имя файла C:\Documents and Settings\EACtemp\(08) Yesterdays - Oscar Peterson.wav
Пиковый уровень 66.5 %
Качество трека 100.0 %
CRC теста 97A2A46F
CRC копии 97A2A46F
Копирование... OK
Трек 9
Имя файла C:\Documents and Settings\EACtemp\(09) Keyboard Blues - Oscar Peterson.wav
Пиковый уровень 100.0 %
Качество трека 100.0 %
CRC теста 25302A19
CRC копии 25302A19
Копирование... OK
Трек 10
Имя файла C:\Documents and Settings\EACtemp\(10) Lill Darlin' - Oscar Peterson.wav
Пиковый уровень 81.5 %
Качество трека 100.0 %
CRC теста FAD4FA8C
CRC копии FAD4FA8C
Копирование... OK
Трек 11
Имя файла C:\Documents and Settings\EACtemp\(11) Tangerine - Oscar Peterson.wav
Пиковый уровень 99.3 %
Качество трека 100.0 %
CRC теста 96C640BB
CRC копии 96C640BB
Копирование... OK
Трек 12
Имя файла C:\Documents and Settings\EACtemp\(12) My Foolish Heart - Oscar Peterson.wav
Пиковый уровень 79.5 %
Качество трека 99.9 %
CRC теста 14B359D7
CRC копии 14B359D7
Копирование... OK
Ошибок не произошло
Конец отчёта</pre></spoiler><spoiler title="CD 02"><pre>Отчёт EAC об извлечении, выполненном 27. декабря 2007, 21:28 для диска:
Oscar Peterson / Th. Champs Elysйes 20 Mars 1965 - Pleyel 29 Mars 1966
Дисковод: TSSTcorpCDDVDW SH-S203D Adapter: 2 ID: 1
Режим чтения: Достоверный (C2: нет, Точный поток: да, Отключение кэша: да)
Коррекция смещения при чтении: 0
Способность читать области Lead-in и Lead-out : Нет
Выходной формат: Внутренние WAV-операции
44.100 Гц; 16 бит; стерео
Другие параметры:
Заполнение пропущенных сэмплов тишиной : Да
Удаление блоков с тишиной в начале и конце : Нет
Встроенный Win32-интерфейс для Win NT/2000
Трек 1
Имя файла C:\Documents and Settings\EACtemp\(01) Mack the Knife - Oscar Peterson.wav
Пиковый уровень 100.0 %
Качество трека 100.0 %
CRC теста C0C4C9CF
CRC копии C0C4C9CF
Копирование... OK
Трек 2
Имя файла C:\Documents and Settings\EACtemp\(02) Blues for Smedley - Oscar Peterson.wav
Пиковый уровень 100.0 %
Качество трека 99.9 %
CRC теста 26983F1E
CRC копии 26983F1E
Копирование... OK
Трек 3
Имя файла C:\Documents and Settings\EACtemp\(03) Misty - Oscar Peterson.wav
Пиковый уровень 82.7 %
Качество трека 100.0 %
CRC теста 21DF3F60
CRC копии 21DF3F60
Копирование... OK
Трек 4
Имя файла C:\Documents and Settings\EACtemp\(04) Mumble - Oscar Peterson.wav
Пиковый уровень 100.0 %
Качество трека 100.0 %
CRC теста A0252700
CRC копии A0252700
Копирование... OK
Трек 5
Имя файла C:\Documents and Settings\EACtemp\(05) Blues Etude - Oscar Peterson.wav
Пиковый уровень 100.0 %
Качество трека 100.0 %
CRC теста 5F1FFC8C
CRC копии 5F1FFC8C
Копирование... OK
Трек 6
Имя файла C:\Documents and Settings\EACtemp\(06) You look good to me - Oscar Peterson.wav
Пиковый уровень 100.0 %
Качество трека 100.0 %
CRC теста 29DF2899
CRC копии 29DF2899
Копирование... OK
Трек 7
Имя файла C:\Documents and Settings\EACtemp\(07) Stella by Starlight - Oscar Peterson.wav
Пиковый уровень 100.0 %
Качество трека 100.0 %
CRC теста 5AA0DE20
CRC копии 5AA0DE20
Копирование... OK
Трек 8
Имя файла C:\Documents and Settings\EACtemp\(08) Moanin' - Oscar Peterson.wav
Пиковый уровень 100.0 %
Качество трека 99.9 %
CRC теста E6625956
CRC копии E6625956
Копирование... OK
Трек 9
Имя файла C:\Documents and Settings\EACtemp\(09) Shelley's World - Oscar Peterson.wav
Пиковый уровень 100.0 %
Качество трека 100.0 %
CRC теста BB7A4774
CRC копии BB7A4774
Копирование... OK
Трек 10
Имя файла C:\Documents and Settings\EACtemp\(10) Autumn Leaves - Oscar Peterson.wav
Пиковый уровень 100.0 %
Качество трека 100.0 %
CRC теста EDC81752
CRC копии EDC81752
Копирование... OK
Ошибок не произошло
Конец отчёта</pre></spoiler></spoiler>
Приватный:
Нет (DHT включён)
Размер:
670.32 Мб (702,878,147 байт) » файлов: 36
Участники:
0 раздают, 0 качают (0 участников всего)
Внешние участники:
Нет внешних трекеров [ Обновить ]
03:25
34
RSS
Нет комментариев. Ваш будет первым!