Поиск

1957-1964 (2002) Oscar Peterson Trio - Paris Jazz Concert Set 1 (2CD) {Delta 17417, 17418}

1957-1964 (2002) Oscar Peterson Trio - Paris Jazz Concert Set 1 (2CD) {Delta 17417, 17418}
Страна-производитель диска (релиза):
France
Дата записи диска:
8 мая 1957 - 26 апреля 1964
Дата издания диска:
2002
Номер по каталогу:
17417, 17418
Носитель:
CD
Битрейт аудио:
lossless
Аудиокодек:
FLAC (*.flac)
Тип рипа:
tracks
Время звучания:
72:29 + 62:08
Наличие сканов:
  • да
Релизёр (источник):
JanV
Треклист:

CD 1
01. The Man I Love 3:54
02. Schooldays 4:36
03. Bugle Call Rag 2:50
04. Daahound 7:20
05. Stockholm Sweetenin' 5:48
06. Soft Winds 6:25
07. After Hours 7:58
08. On Green Dolphin Street 7:34
09. Band Call 7:16
10. I Remember Clifford 8:11
11. Where Do I Go from Here 3:48
12. Satin Doll 6:42

CD 2
01. Six and Four 7:58
02. But Not for Me 3:23
03. Mainstem 4:28
04. I've Got a Crush on You/Little Girl Blue 5:35
05. Bonzo Blues 4:59
06. Reunion Blues 5:22
07. Wheatland 7:50
08. Nightingale 6:35
09. Hymn to Freedom 6:07
10. Yours Is My Heart Alone/Blues for Big Scottia 9:45

Состав:
CD 1
  • Oscar Peterson, piano
  • Ray Brown, bass
  • Herb Ellis, guitar (##1-7)
  • Jo Jones, drums (##1-3)
  • Ed Thigpen, drums (##8-12)
  • Ray Eldridge, trumpet, vocals (#2)
  • Stuff Smith, violin (##1-3)

rec.: May 8th, 1957 — Olympia (##1-3)
April 30th, 1960 — Olympia (##4-7)
February 28th, 1961 — Olympia (##8-12)

CD 2

rec.: March 22nd, 1963 — Olympia (##1-5)
April 25th & 26th, 1964 — Théâtre des Champs-Elysees (##6-10)
Лог создания рипа
<spoiler title="Логи создания рипа"><spoiler title="CD 01"><pre>Отчёт EAC об извлечении, выполненном 27. декабря 2007, 19:35 для диска:
Oscar Peterson Trio / Paris Jazz Convert CD 1/2
Дисковод: TSSTcorpCDDVDW SH-S203D Adapter: 2 ID: 1
Режим чтения: Достоверный (C2: нет, Точный поток: да, Отключение кэша: да)
Коррекция смещения при чтении: 0
Способность читать области Lead-in и Lead-out : Нет
Выходной формат: Внутренние WAV-операции
44.100 Гц; 16 бит; стерео
Другие параметры:
Заполнение пропущенных сэмплов тишиной : Да
Удаление блоков с тишиной в начале и конце : Нет
Встроенный Win32-интерфейс для Win NT/2000
Трек 1
Имя файла C:\Documents and Settings\EACtemp\(01) The Man I Love - Oscar Peterson Trio.wav
Пиковый уровень 91.3 %
Качество трека 100.0 %
CRC теста 629B37E6
CRC копии 629B37E6
Копирование... OK
Трек 2
Имя файла C:\Documents and Settings\EACtemp\(02) Schooldays - Oscar Peterson Trio.wav
Пиковый уровень 95.1 %
Качество трека 100.0 %
CRC теста 6CCD194A
CRC копии 6CCD194A
Копирование... OK
Трек 3
Имя файла C:\Documents and Settings\EACtemp\(03) Bugle Call Rag - Oscar Peterson Trio.wav
Пиковый уровень 97.1 %
Качество трека 100.0 %
CRC теста 2C35ED4D
CRC копии 2C35ED4D
Копирование... OK
Трек 4
Имя файла C:\Documents and Settings\EACtemp\(04) Daahoud - Oscar Peterson Trio.wav
Пиковый уровень 98.4 %
Качество трека 100.0 %
CRC теста 50A7AFEC
CRC копии 50A7AFEC
Копирование... OK
Трек 5
Имя файла C:\Documents and Settings\EACtemp\(05) Stockholm Sweetenin' - Oscar Peterson Trio.wav
Пиковый уровень 98.2 %
Качество трека 100.0 %
CRC теста 03420500
CRC копии 03420500
Копирование... OK
Трек 6
Имя файла C:\Documents and Settings\EACtemp\(06) Soft Winds - Oscar Peterson Trio.wav
Пиковый уровень 98.2 %
Качество трека 100.0 %
CRC теста 243A3CDC
CRC копии 243A3CDC
Копирование... OK
Трек 7
Имя файла C:\Documents and Settings\EACtemp\(07) After Hours - Oscar Peterson Trio.wav
Пиковый уровень 98.2 %
Качество трека 100.0 %
CRC теста 9C861320
CRC копии 9C861320
Копирование... OK
Трек 8
Имя файла C:\Documents and Settings\EACtemp\(08) On Green Dolphin Street - Oscar Peterson Trio.wav
Пиковый уровень 98.2 %
Качество трека 100.0 %
CRC теста B39009B7
CRC копии B39009B7
Копирование... OK
Трек 9
Имя файла C:\Documents and Settings\EACtemp\(09) Band Call - Oscar Peterson Trio.wav
Пиковый уровень 98.2 %
Качество трека 100.0 %
CRC теста 5F44350D
CRC копии 5F44350D
Копирование... OK
Трек 10
Имя файла C:\Documents and Settings\EACtemp\(10) I Remember Clifford - Oscar Peterson Trio.wav
Пиковый уровень 98.2 %
Качество трека 100.0 %
CRC теста 303454F8
CRC копии 303454F8
Копирование... OK
Трек 11
Имя файла C:\Documents and Settings\EACtemp\(11) Where Do I Go From Here - Oscar Peterson Trio.wav
Пиковый уровень 98.2 %
Качество трека 100.0 %
CRC теста E3E53B05
CRC копии E3E53B05
Копирование... OK
Трек 12
Имя файла C:\Documents and Settings\EACtemp\(12) Satin Doll - Oscar Peterson Trio.wav
Пиковый уровень 98.2 %
Качество трека 100.0 %
CRC теста 402102FD
CRC копии 402102FD
Копирование... OK
Ошибок не произошло
Конец отчёта</pre></spoiler><spoiler title="CD 02"><pre>Отчёт EAC об извлечении, выполненном 27. декабря 2007, 20:05 для диска:
Oscar Peterson Trio / Paris Jazz Concert CD 2/2
Дисковод: TSSTcorpCDDVDW SH-S203D Adapter: 2 ID: 1
Режим чтения: Достоверный (C2: нет, Точный поток: да, Отключение кэша: да)
Коррекция смещения при чтении: 0
Способность читать области Lead-in и Lead-out : Нет
Выходной формат: Внутренние WAV-операции
44.100 Гц; 16 бит; стерео
Другие параметры:
Заполнение пропущенных сэмплов тишиной : Да
Удаление блоков с тишиной в начале и конце : Нет
Встроенный Win32-интерфейс для Win NT/2000
Трек 1
Имя файла C:\Documents and Settings\EACtemp\(01) Six And Four - Oscar Peterson Trio.wav
Пиковый уровень 98.2 %
Качество трека 100.0 %
CRC теста A4512567
CRC копии A4512567
Копирование... OK
Трек 2
Имя файла C:\Documents and Settings\EACtemp\(02) But Not For Me - Oscar Peterson Trio.wav
Пиковый уровень 98.2 %
Качество трека 100.0 %
CRC теста 215AF23F
CRC копии 215AF23F
Копирование... OK
Трек 3
Имя файла C:\Documents and Settings\EACtemp\(03) Mainstem - Oscar Peterson Trio.wav
Пиковый уровень 98.2 %
Качество трека 100.0 %
CRC теста 06A4EDB2
CRC копии 06A4EDB2
Копирование... OK
Трек 4
Имя файла C:\Documents and Settings\EACtemp\(04) (A) I've Got A Crush On You (B) Little Girl Blue - Oscar Peterson Trio.wav
Пиковый уровень 93.8 %
Качество трека 100.0 %
CRC теста 923C65CE
CRC копии 923C65CE
Копирование... OK
Трек 5
Имя файла C:\Documents and Settings\EACtemp\(05) Bonzo Blues - Oscar Peterson Trio.wav
Пиковый уровень 98.2 %
Качество трека 100.0 %
CRC теста C55DAA47
CRC копии C55DAA47
Копирование... OK
Трек 6
Имя файла C:\Documents and Settings\EACtemp\(06) Reunion Blues - Oscar Peterson Trio.wav
Пиковый уровень 98.2 %
Качество трека 100.0 %
CRC теста F8CD0DAD
CRC копии F8CD0DAD
Копирование... OK
Трек 7
Имя файла C:\Documents and Settings\EACtemp\(07) Wheatland - Oscar Peterson Trio.wav
Пиковый уровень 90.9 %
Качество трека 100.0 %
CRC теста CC6CCD9A
CRC копии CC6CCD9A
Копирование... OK
Трек 8
Имя файла C:\Documents and Settings\EACtemp\(08) Nightingale - Oscar Peterson Trio.wav
Пиковый уровень 98.2 %
Качество трека 99.9 %
CRC теста 60B03CD7
CRC копии 60B03CD7
Копирование... OK
Трек 9
Имя файла C:\Documents and Settings\EACtemp\(09) Hymn To Freedom - Oscar Peterson Trio.wav
Пиковый уровень 98.2 %
Качество трека 100.0 %
CRC теста B8E8AC83
CRC копии B8E8AC83
Копирование... OK
Трек 10
Имя файла C:\Documents and Settings\EACtemp\(10) (A) Yours Is My Heart Alone (B) Blues For Big Scottia - Oscar Peterson Trio.wav
Пиковый уровень 98.2 %
Качество трека 100.0 %
CRC теста F3C61F64
CRC копии F3C61F64
Копирование... OK
Ошибок не произошло
Конец отчёта</pre></spoiler></spoiler>
Приватный:
Нет (DHT включён)
Размер:
765.20 Мб (802,374,039 байт) » файлов: 36
Участники:
0 раздают, 0 качают (0 участников всего)
Внешние участники:
Нет внешних трекеров [ Обновить ]
02:43
97
RSS
Нет комментариев. Ваш будет первым!