Поиск

1962 Teddy Edwards - Good Gravy! (2021) {Music Manager} [24-48]

1962 Teddy Edwards - Good Gravy! (2021) {Music Manager} [24-48]
Стили:
Дата записи диска:
23-25 августа 1961
Место записи:
Contemporary Records, Los Angeles, CA
Издатель (лейбл):
Носитель:
WEB
Формат:
PCM
Тип рипа:
tracks
Контейнер:
FLAC (*.flac)
Количество каналов:
2.0
Разрядность/ЧД:
24/48
Битрейт аудио:
lossless
Наличие сканов:
только обложка

01 - Good Gravy 05:28
02 - Could You Forget 05:41
03 - A Stairway to the Stars 04:41
04 - A Little Later 04:13
05 - On Green Dolphin Street 05:24
06 - Just Friends 05:21
07 - Laura 03:19
08 - Yes, I'll Be Ready 04:04
09 - Not So Strange 03:01

Состав:
  • Teddy Edwards – tenor saxophone
  • Danny Horton (tracks 1-3 & 6-9), Phineas Newborn, Jr. (tracks 4 & 5) – piano
  • Leroy Vinnegar – bass
  • Milt Turner – drums
Лог проверки качества
foobar2000 1.4.6 / Dynamic Range Meter 1.1.1
log date: 2021-10-12 07:17:58
--------------------------------------------------------------------------------
Analyzed: Teddy Edwards / Good Gravy!
--------------------------------------------------------------------------------
DR         Peak         RMS     Duration Track
--------------------------------------------------------------------------------
DR15      -0.02 dB   -19.66 dB      5:29 01-Good Gravy
DR14      -0.03 dB   -18.86 dB      5:42 02-Could You Forget
DR12      -0.03 dB   -15.59 dB      4:42 03-A Stairway to the Stars
DR14      -0.04 dB   -17.48 dB      4:14 04-A Little Later
DR14      -0.14 dB   -18.95 dB      5:24 05-On Green Dolphin Street
DR16      -0.02 dB   -18.71 dB      5:21 06-Just Friends
DR13      -0.04 dB   -16.15 dB      3:20 07-Laura
DR14      -0.06 dB   -18.09 dB      4:04 08-Yes, I'll Be Ready
DR14      -0.08 dB   -18.00 dB      3:01 09-Not So Strange
--------------------------------------------------------------------------------
Number of tracks:  9
Official DR value: DR14
Samplerate:        48000 Hz
Channels:          2
Bits per sample:   24
Bitrate:           1353 kbps
Codec:             FLAC
================================================================================
Приватный:
Нет (DHT включён)
Размер:
388.74 Мб (407,624,272 байт) » файлов: 13
Участники:
0 раздают, 0 качают (0 участников всего)
Внешние участники:
5 раздают, 1 качают (6 участников всего) [ Обновить ]
22:33
376
Нет комментариев. Ваш будет первым!