Вы используете незарегистрированную версию компонента "Вкладки"!

Поиск

1962 Rahsaan Roland Kirk - Domino (2019) {RevOla} [24-44,1]

1962 Rahsaan Roland Kirk - Domino (2019) {RevOla} [24-44,1]
Издатель (лейбл):
Битрейт аудио:
lossless
Доп. инфо:

Формат записи/Источник записи: [TR24][OF]
Издание: Remastered
Год издания/переиздания диска: 1962/2019
Издатель (лейбл): RevOla
Продолжительность: 00:58:16
Наличие сканов в содержимом раздачи: Нет

Контейнер: FLAC (*.flac)
Тип рипа: tracks
Разрядность: 24/44,1
Количество каналов: 2.0

Источник (релизер): Qobuz

Лог проверки качества
foobar2000 1.3.7 / Dynamic Range Meter 1.1.1
log date: 2019-01-14 06:21:04

--------------------------------------------------------------------------------
Analyzed: Rahsaan Roland Kirk / Domino (Remastered)
--------------------------------------------------------------------------------

DR         Peak         RMS     Duration Track
--------------------------------------------------------------------------------
DR12      -1.30 dB   -17.33 dB      3:16 01-Domino (Remastered)
DR14      -1.79 dB   -18.47 dB      3:41 02-Meeting On Termini's Corner (Remastered)
DR12      -4.00 dB   -20.54 dB      3:14 03-Time (Remastered)
DR14      -2.07 dB   -19.83 dB      3:40 04-Lament (Remastered)
DR14      -4.06 dB   -21.11 dB      5:07 05-A Stritch In Time (Remastered)
DR14      -1.13 dB   -19.56 dB      2:36 06-3-In-1 Without The Oil (Remastered)
DR13      -2.66 dB   -18.24 dB      4:50 07-Get Out Of Town (Remastered)
DR13      -1.74 dB   -17.57 dB      3:47 08-Rolando (Remastered)
DR13      -1.95 dB   -19.07 dB      4:27 09-I Believe In You (Remastered)
DR12      -2.31 dB   -17.61 dB      2:36 10-E.D. (Remastered)
DR12      -2.62 dB   -18.80 dB      4:12 11-Where Monk And Mingus Live - Let's Call This (Remastered)
DR11      -1.42 dB   -16.62 dB      4:08 12-Domino, pt. 2 (Remastered)
DR13      -2.57 dB   -18.93 dB      3:16 13-I Didn't Know What Time It Was (Remastered)
DR12      -4.66 dB   -21.20 dB      3:38 14-Someone To Watch Over Me (Remastered)
DR14      -1.89 dB   -18.81 dB      2:46 15-Termini's Corner (Remastered)
DR12      -2.12 dB   -19.07 dB      2:49 16-When The Sun Comes Out (Remastered)
DR10      -0.82 dB   -14.02 dB      0:22 17-Time Races With Emit (Remastered)
--------------------------------------------------------------------------------

Number of tracks:  17
Official DR value: DR13

Samplerate:        44100 Hz
Channels:          2
Bits per sample:   24
Bitrate:           1674 kbps
Codec:             FLAC
================================================================================
Any questions - support@pro-jazz.com. Есть вопросы - support@pro-jazz.com
07:40
382
Нет комментариев. Ваш будет первым!