Вы используете незарегистрированную версию компонента "Вкладки"!

Поиск

1960 Lambert, Hendricks & Ross - Sing Ellington! (2019) {RevOla} [24-44,1]

1960 Lambert, Hendricks & Ross - Sing Ellington! (2019) {RevOla} [24-44,1]
Стили:
Издатель (лейбл):
Битрейт аудио:
lossless
Доп. инфо:

Формат записи/Источник записи: [TR24][OF]
Издание: Remastered
Год издания/переиздания диска: 1960/2019
Издатель (лейбл): RevOla
Продолжительность: 00:31:38
Наличие сканов в содержимом раздачи: Нет

Контейнер: FLAC (*.flac)
Тип рипа: tracks
Разрядность: 24/44,1
Количество каналов: 2.0

Источник (релизер): Qobuz

Лог проверки качества
foobar2000 1.4.3 / Dynamic Range Meter 1.1.1
log date: 2020-04-20 08:03:45

--------------------------------------------------------------------------------
Analyzed: Lambert Hendricks & Ross / Sing Ellington!
--------------------------------------------------------------------------------

DR         Peak         RMS     Duration Track
--------------------------------------------------------------------------------
DR12      -2.33 dB   -16.61 dB      2:56 01, 01-Cottontail
DR11      -2.92 dB   -17.01 dB      3:28 02, 02-All Too Soon
DR12      -1.95 dB   -17.18 dB      1:19 03, 03-Happy Anatomy
DR12      -2.52 dB   -17.51 dB      3:10 04, 04-Rocks In My Bed
DR12      -2.73 dB   -17.41 dB      2:53 05, 05-Main Stem
DR11      -2.69 dB   -16.91 dB      3:30 06, 06-I Don't Know What Kind Of Blues I've Got
DR12      -2.23 dB   -17.04 dB      2:48 07, 07-Things Ain't What They Used To Be
DR12      -5.46 dB   -20.51 dB      2:35 08, 08-Midnight Indigo
DR11      -1.55 dB   -16.83 dB      2:59 09, 09-What Am I Here For
DR13      -2.17 dB   -18.78 dB      3:29 10, 10-In A Mellow Tone
DR12      -1.75 dB   -16.53 dB      2:33 11, 11-Caravan
--------------------------------------------------------------------------------

Number of tracks:  11
Official DR value: DR12

Samplerate:        44100 Hz
Channels:          2
Bits per sample:   24
Bitrate:           1452 kbps
Codec:             FLAC
================================================================================
Any questions - support@pro-jazz.com. Есть вопросы - support@pro-jazz.com
07:47
249
Нет комментариев. Ваш будет первым!